| アーティスト |
「PHANTASY STAR PORTABLE2 ∞」 |
BASIC
ADVANCED
EXPERT
MASTER
(160)
{8}3h[4:3]/5,,4,4,,2,2q4[4:3],,{1}B1/B2/E2f,
{8}6h[4:3]/4,,5,5,,7,7p5[4:3],,{1}B8/B7/E8f,
{8}3h[4:3]/6,,6,5,,5,4^7[2:1],,{4}B4/B5/E5f,,,{8}7,7,
1/6V47-3[8:5],,2,2,,3>5[8:5],,{1}4h[8:5],{8}35,
3/5h[4:3],,4,4,,6,6pp4[4:3],,{4}E6,E6,E6,E6,
{8}E6/4,,E6/4,4h[4:1],E6,,E6/4>6[4:3],,{4}E6,E6,E6,E6,
{8}E6/7,,E6/7,7h[4:1],E6,,E6/7V13-5[4:3],,{4}E6,E6,E6,E6,
{8}E6/4,,E6/4,4h[4:1],E6,,E6/4^2-8q5[4:3],,{4}E6,E6,E6,E6,
5h[8:3]/7h[8:3],,56,{16}7-3[8:1],5,{8}7,
2-6[8:1],,4,5^8[8:1],,4,3^6[8:1],,8,8-4[8:1],,58,,3,3-6[8:1],4,
3/5^8[8:1],,1,2-6[8:1],,8,7-4[8:1],,3,2-5[8:1]*-7[8:1],,2,,4b/6b,4b/6b,,
3/7h[4:1],,3,3,2/6h[4:1],,2,2,1/5h[4:1],,1,1,48,4-6[8:1]/8,,1,
1h[4:1],,6,6,7/3h[4:1],,7,7,8/4h[4:1],,8,8^5[8:1]/4,,3,,24,
2/4h[4:1],,2,2,1/5h[4:1],,1,{4}1p5[8:1],6<4[4:1],3h[4:1],,{8}26,
2h[4:1]/6h[4:1],,,26,37,4/8p4[8:1],,3,,15,1h[4:1]/5h[4:1],,,37,37,,
4/6V82[2:1],,5,5,,,B4/B5,,3V17[2:1],,4,4,,,B5/B4,,
6<3[2:1],,5,5,,,E5/B5,,3>6[2:1],,4,4,,,E5/B4,,
7<2[2:1]/1,,8,8,,,B1/B8,,2>7[2:1]/8,,1,1,,,B8/B1,,
3h[4:1]/4h[4:1],,,12,,18,,78,7h[4:1]/8h[4:1],,,56,,47,,25,
2h[4:1]/5h[4:1],,,4h[4:1]/7h[4:1],,,,
B7h[8:7]/E7h[12:11]/B6h[24:23]/B2h[1:1]/E3h[24:25]/B3h[12:13]/Chf[8:9],{1},
{4},,,37,{8}48,4qq4[4:1]/8qq8[4:1],,4b/8b,,,3-8[8:1]/7-4[8:1],,
3b/7b,,16,{4}1/6^3[8:1],6/2^7[8:1],25,5-8[8:1]/8-3[8:1],58,{8},3p7[8:1],4,
3,,5,4/6-1[8:1]*-2[8:1],,6,,3h[4:1],,1,28,17,,7,7-4[8:1],6,
7,,25,{4}2^7[8:1]/5,2/6^3[8:1],16,2-5[8:1]/4-8[8:1],24,{8}7bx/8bx,1bx/6bx,2bx/5bx,
,2bx/1bx,8bx/3bx,7bx/4bx,,37,37,,48,4qq3^4[4:1]/8qq7^8[4:1],,4b/8b,,,37,,
5/6h[4:1],,7,{4}7^2[8:1],7/5-1[8:1],5/7v4[8:1],7/2<4[4:1],25,{8},7-3[8:1],8,
7,,24,2-5[8:1]/4-7[8:1],,24,,4-8[8:1],7-4[8:1],4>6[8:3],7,B8f/E8/E1,,,3,,
21,2,23,2,21,2,24,2,78,7,76,7,78,7,7pp4[2:1]/5,7,
{4}78,,,{32}3x/7,4x,5x,6x,7x,8x,1x,2x,{4}3hx[8:3]/5hx[8:3],,26,{16}6^1[8:1],4,{8}6,
3-5[8:1],,8,8-3[8:1],,4,4-8[8:1],,6,6-1[8:1]*-3[8:1],,6,,2,3^8[8:1],5,
6v1[8:1],,2,2v5[8:1],,8,8-3[8:1],,4,4^1[8:1],,6,,78,7^4[8:1]/8,,
2v5[8:1],,6,6v1[8:1],,4,4-7[8:1],,8,8^3[8:1]*^5[8:1],,8,,26,26,,
6^1[8:1],5,4,3^6[8:1],2,1,8^3[8:1],7,6,5^8[8:1],4,3,2^7[8:1],3,4bw8[8:1]b,,
{1}4bx/B3/B4f/B5,,,,E
Re:MASTER
- MASTER譜面を追加しました。修正等ありましたらよろしくお願いします。 -- けもがみ (2026-08-04 14:57:27)
最終更新:2026年08月04日 14:57