アットウィキロゴ

[音]インドア系ならトラックメイカー

BPM 属性 COMMENT
128 音 ~音取りほぼMAXバージョン~

属性:音

(128)
{8}E7,E6,E5,{12}E4,{48}A2,D3,{8}A3,E2,E1,,E3,E4,E5,E6,E7,E8,E1,{24}E2,,A2,
{8}E3,E4,E5,{12}E6,{48}A7,D7,{8}A6,E8,E1,,E7,E6,E5,E4,E3,E2,E1,{24}E8,,A7,
{8}E7/4,E6,E5/4,{12}E4,{48}A2,D3,{8}A3/4,E2,E1/4,,E3/5,E4,E5/5,E6,E7/5,E8,E1/5,{24}E2,,A2,
{8}E3/4,E4,E5/4,{12}E6,{48}A7,D7,{8}A6/4,E8,E1/4,,E7/5,E6,E5/5,E4,{64}E3/5,,,,,,,B1,,,,,{16}B8,{24}E7,,,4,5,4,

{16}5,,3,3,4,4,2,,6,6,5,5,7,7,46,,2,2,1,1,3,,7,7,8,8,6,,7,7,5,,
46,46,,5,{24}6,5,4,{16}3,,1,1,4,4,2,2,34,,56,,8,8,5,5,7,7,4,4,35,,1x/2x,,8,8,
1,1,4h[8:1],,3,3,5,5,4,4,6,6,57,,,,8,8,5h[8:1],,6,6,4,4,5,5,3,3,4,,,,
2h[8:1],,4,4,3,3,5,5,4,4h[8:1],,6,6,,7,7,5x,6,5,6,4x,5,4,5,3x,4,3,4,2,2,4h[8:1],,

3,3,4,2,6,6,5,7,2,2,4,4,6,6,8h[8:1],,2,2,4,3,7,7,5,6,3,3,8,8,1,1,27,,
6,6,5,7,3,3,4,2,7,7,5,5,3,3,1h[8:1],,7,7,5,6,2,2,4,3,6,6,4,4,5,5,45,,
3,3,4,2,6,6,5,7,2,2,4,4,6,6,8h[8:1],,2,2,4,3,7,7,5,6,3,3,8,8,1,1,27,,
6,6,5,7,3,3,4,2,7,7,5,5,3,3,1h[8:1],,7,7,5,6,2,2,4,3,6,6,4,4,1-3[16:1]/5,5,{8}4,

1-7[16:1]/5,5,1-3[16:1]/4,4,1-7[16:1]/5,5,1-3[16:1]/4,,1-5[8:1]/5,5,16,6,{16}8,1,,1,8-6[16:1],8,{24}2,,2,
{8}8-2[16:1],4,8-6[16:1]/5,5,8-2[16:1]/4,4,8-6[16:1]/5,,8-2[16:1]/4,4,83,3,{16}1,8,,8,1-3[16:1],1,{8}7,
1-7[16:1],5,1-3[16:1]/4,4,1-7[16:1]/5,5,1-3[16:1]/4,,1-7[16:1]/5,5,16,6,{16}8,1,,1,8-6[16:1],8,{24}2,,2,
{8}8-2[16:1],4,8-6[16:1]/5,5,8-2[16:1]/4,4,8-6[16:1]/5,,8-2[16:1]/4,4,83,3,{16}1,8,,8,1,1,7,,

3,4,2,4,3,4,1,4,3,4,2,4,3,4,1,,6,5,7,5,6,5,8,5,6,5,7,5,6,5,8,,
3,4,2,4,3,4,1,4,E3,4,1,4,3,4,1,,6,5,7,5,6,5,8,5,6,5,7,5,6,5,8,,
3,4,2,4,3,4,1,4,3,4,2,4,3,4,1,1,6,5,7,5,6,5,8,5,6,5,7,5,6,5,6,6,
{48}3/A7,,A8,4,A7,,3/A8,,A7,4,A8,,3/A7,,A8,4,A7,,3/A8,,A7,4,A8,,
A7,,A8,4,A7,,3/A8,,A7,4,A8,,3/A7,,A8,4,A7,,{16}3/A8,,6,5,7,5,6,5,8,5,6,5,6,4,5,3,4b,,

{24}2x/5x,,3,,,47,4x/7x,,6,,,25,2x/5x,,{48}2,3,{24}4,,,6x,,6,5,,,
4x/7x,,47,,36,,2x/5x,,,25,,36,7x,,{48}7,6,{8}5,1b,,
{24}7x/4x,,6,,,52,5x/2x,,3,,,74,7x/4x,,{48}7,6,{24}5,,,3x,,3,4,,,
{12}2x/4x,24,35,4x/6x,57,68,{8}1xw5[8:1],37,1b,,
{24}2x/5x,,6,5b,,47,4x/7x,,3,4b,,25,2x/5x,,{48}2,3,{24}4b/5,,,6x,,6,5/7b,,,
4x/7x,,47,3b,36,,2x/5x,,,2/5b,,36,7x,,{48}7,6,{8}1b/5,24,,
{24}2x/5x,,6,5b,,47,4x/7x,,3,4b,,25,2x/5x,,{48}2,3,{24}4b/5,,,6x,,6,5/7b,,,
{16}8,8,7,7,6,6,5,5,3,3,2,2,{12}1x-5-1[4:15]/7x,1x/7x,1x/7x,

{24}8,,8,,,7,6,,6,,,4,3x,,4,3,,,2,,2,3,,,,,4,,4,,4,,,7,,7,6x,,6,8,,,{4}7b,
{24}8,,8,,,7,6,,6,,,4,3x,,4,3,,,2,,2,3,,,4,,4,,4,,3,,3,,3,,4x,,,6,,8,8-4-8[4:13],,,E7,,,
1,,1,,,2,3,,3,,,5,6x,,5,6,,,7,,7,6,,,,,5,,5,,5,,,2,,2,3x,,3,1,,,{4}2b,
{24}1,,1,,,2,3,,3,,,5,6x,,5,6,,,7,,7,6,,,{12}5,5,5,6,6,6,{8}1-4[8:1]/7-4[8:1],35,1b/7b,,

{16}3,5,3,5,2,1,2,1,{8}3h[16:1]/4h[16:1],1h[16:1]/2h[16:1],7h[16:1]/8h[16:1],5h[16:1]/6h[16:1],
{16}6,4,6,4,7,8,7,8,{8}7h[16:1]/8h[16:1],7h[16:1]/8h[16:1],1h[16:1]/2h[16:1],1h[16:1]/2h[16:1],
{16}3,5,3,5,2,1,2,1,{8}1h[16:1]/2h[16:1],5h[16:1]/6h[16:1],7h[16:1]/8h[16:1],3h[16:1]/4h[16:1],
{16}6,4,6,4,7,8,7,8,{8}7h[16:1]/8h[16:1],5h[16:1]/6h[16:1],3h[16:1]/4h[16:1],1h[16:1]/2h[16:1],
{16}2,3,2,3,1,4,1,4,{8}5h[16:1]/8h[16:1],6h[16:1]/7h[16:1],5h[16:1]/8h[16:1],6h[16:1]/7h[16:1],
{16}7,6,7,6,8,5,8,5,{8}1h[16:1]/4h[16:1],1h[16:1]/4h[16:1],2h[16:1]/3h[16:1],2h[16:1]/3h[16:1],
{16}1,4,2,5,3,6,4,7,{8}5h[16:1]/6h[16:1],7h[16:1]/8h[16:1],5h[16:1]/6h[16:1],6h[16:1]/7h[16:1],
{16}8,5,7,4,6,3,5,2,{8}3h[16:1]/4h[16:1],1h[16:1]/2h[16:1],2h[16:1]/3h[16:1],4h[16:1]/5h[16:1],

{8}E7/4,E6,E5/4,{12}E4,{48}A2,D3,{8}A3/4,E2,E1/4,,E3/5,E4,E5/5,E6,E7/5,E8,E1/5,{24}E2,,A2,
{8}E3/4,E4,E5/4,{12}E6,{48}A7,D7,{8}A6/4,E8,E1/4,,E7/5,E6,E5/5,E4,E3/5,E2,E1/5,{24}E8,,A7,
{24}E7/4,,,E6,,3,E5/4,,,E4/4,,{48}A2,D3,{8}A3/5,E2/5,E1/4,4,
{24}E3/5,,,E4,,6,{8}E5/5,E6/5,E7/4,E8/4,E1/5,{24}E2/5,,A2,
{24}E3/4,,,E4/5,4,5,E5/4,,4,E6,4,{48}A7,D7,{24}A6/5,,5,E8,5,,E1/4,,,4,,,
{8}E7/5h[8:1],E6,E5/4h[8:1],E4,{1}E3/8b,,,,E

  • 宴譜面を追加しました。修正等ありましたらよろしくお願いします。 -- けもがみ (2026-08-04 19:58:33)
名前:
コメント:

タグ:

+ タグ編集
  • タグ:
最終更新:2026年08月04日 19:58