アットウィキロゴ

Story Continued

アーティスト ユアミトス

BPM BASIC ADVANCED EXPERT MASTER Re:MASTER
170 4 6 10+ 13 -

EXPERT MASTER Re:MASTER
譜面制作者 サファ太 けんけん法師 -

BASIC


ADVANCED


EXPERT


MASTER

(170){1},
{1}3qq7[2:3],
{1},
{1}8q3[8:11],
{1},
{4}4V26[8:5],,,7,
{4}7V15[8:5],,,4,
{2}4h[1:2],E5,
{1}C1h[1:1],
{1},
{8}7,,7,5h[8:3],7,,7,5,
{4}7,5/7,6/7,6/7,
{4}7/8>6[4:5],7,7,7,
{4}E7,E5,E3,E1,
{8}3,,3,1h[8:3],3,,3,1,
{4}3,1/3,2/3,2/3,
{4}3/4q1[2:1],3,3,3,
{8}1/2,,3/8,3/8,,2/6,2/6,,
{8}5-1-3[4:1],,,4-8-6[4:1],,,1>6[4:3],,
{8},,B8,C1,B4,,,,
{8}2<6[4:1],,6,5,4-8[8:1],,,,
{8}7>3[4:1],,3,4,5p1[8:1]*q1[8:1],,5,,
{12}2bx/8xh[1:1],,,E3,B3,B4,E5,,,A6/B6,,,
{12}5h[1:1],,,B7,C1,B3,A3,,,A2/B2,,,
{12}1h[1:1],,,E2,E1,E8,E7,,,A5/B5,,,
{4}4h[1:1],B7,B5,B3,
{12}1h[1:1],,,A3,E4,E5,A5,,,A6/B6,,,
{16}E5,E4,E3,E2,E1,E8,E7,E6,{2}C1f/E5,
{8}3,,2/4,,5,5,4/6,,
{8}7,7,8,8,1,1,1/2,1/2,
{16}3x,8,3,8,4,7,4,7,{4}5-1[8:1],3/5b,
{16}4h[16:3],,,2h[16:3],,,{8}8-4[8:1],,7,7,5,
{16}5h[16:3],,,3h[16:3],,,{8}1-5[8:1],,5,4<7[8:1],,
{8}4/8,1>4[8:1],,1/7,8-4[8:1],,5>6[8:3]/8,,
{4}A5f,,,{8}5-7[8:1],5,
{8}5-3[8:1],,5-1[8:1],,1,2,3-1[8:1],,
{8}3-5[8:1],,3-7[8:1],,7,6,5<1[4:1],,
{4}1>5[4:1],5V31[4:1],1V75[4:1],5,
{8}2,2-5[8:1]/4-7[8:1],,2b/4b,,4/6,,3,
{16}4/5h[16:3],,,7h[16:3],,,{8}1-5[8:1],,2,2,4,
{16}4h[16:3],,,6h[16:3],,,{8}8-4[8:1],,4,5>2[8:1],,
{8}1/5,8p4[8:1],,3/8,2w6[8:1],,2,,
{4}4bh[4:1]/8bh[4:1],,1/2,3/4,
{8}5/6,,7,8,1/E4/E5,,1/2,,
{8}3/4,,2,1,8/E5/E6,,7-3[8:1]/8-4[8:1],,
{4}7/8,2-8[8:1]/6-4[8:1],2-5[8:1]/6-1[8:1],2/6,
{4}3b/7b,,,3/8,
{8}2h[1:1],,8,1,3,4,5,6,
{8}7qq1[2:1],,,4h[8:3],,,,,
{8}8h[4:3],,4,5,6,7,1,,
{16}1,8,1,8,1,8,1,,{2}2b/6b,
{16}3/4,,,,5,6,7h[4:1],,,,2,1,8,,6,,
{16}5/6,,,,4,3,2h[4:1],,,,7,8,1,,3,,
{16}3x/4x,,,,4/5,,4/5,3/6,{8}2h[4:1]/7h[4:1],,,{16}3/4,2/5,
{8}1h[4:1]/6h[4:1],,,{16}7/8,1/6,{2}2b/5b,
{6}1h[1:2],,A4,B3/E4,,D3,
{1}E2h[2:1],
{6}8h[1:2],,D6,B6/B7,,D7,
{1}E8h[2:1],
{6}1h[2:3],,D5/E5,D4/E4,,A2/B2,
{1}C1hf[2:1],
{4}2/8,1/7,1/3,6/8,
{8}5/6,,3/4,3/4,2/5,2/5,1/6,1/6,
{16}7,8,7,8,6,1,6,1,5,2,5,2,4bx,,,,
{16}2,1,2,,3/8,,7,8,7,,1/6,,2,5,2,,
{16}7,4,7,4,6,3,6,3,5-1[8:1],,,,2/5b,,,,
{16}3h[16:3],,,1h[16:3],,,7-3[8:1],,,,6,,6,,4,,
{16}4h[16:3],,,2h[16:3],,,8v5[8:1],,,,5,,4<7[8:1],,,,
{8}1/4,8>3[8:1],,7/8,6-2[8:1],,5>6b[8:3]/6,,
{4}A5f,,,{24}5<8[8:1],,,5,,,
{8}4/5>2[8:1],,5-1[8:1],,1,2,3>8[8:1],,
{8}3<6[8:1]/4,,3-7[8:1],,7,6,5-1[8:1],4,
{4}3/5b,3V57[4:1],7pp3[8:3],8,
{8}5,5w1[8:1],,5b,,3/7,,8,
{16}1bh[8:1]/3bh[8:1],,,6bh[8:1]/8bh[8:1],,,2b/7b,,,,6,,8,,1,,
{16}2bh[8:1]/4bh[8:1],,,5bh[8:1]/7bh[8:1],,,3b/6b,,,,5,,4-8[8:1]/6,,3/5,,
{8}2-5[8:1]/4,,1/2,7-1[8:1],,6/7,5V31[4:1],,
{12}1-4-6[4:1],,,6>8b[32:9],,,{2}A7hf[4:1]/B7h[4:1]/E7h[4:1],
{4}1b/5b,,1/2,3/7,
{8}5/6,,7,8,1/E4/E5,2,3/7,,
{8}3/4,,2,1,8/E5/E6,7,2/6,,
{8}3/4,,5/6,1,2/4,8,5/7,1/8,
{1}2b/7b,
{16},,3,4,2,,7,8,6,,2,5,1-5b[8:1],6,8,7,
{16}1-6-3-8<1[4:5],C1f,,,{4},,,
{4},,,{8}2-6[8:1],2,
{4}2/4-8[8:1],4/5-1[8:1],5/7-3[8:1],7/8-4[8:1],
{4}1-5[8:1]/8,1/2w6[8:1],2b,4/8,
{8}3V17[4:1],,7>3[4:1],,4,5,6,,
{8}6V82[4:1],,2<6[4:1],,5,4,3,2,
{4}1h[4:1],3h[4:1],5h[4:1],7,
{8}6/8,1/7,2/8,1/3,4/5,{16}7,4,6,3,5-1[8:1],2h[16:9],
{2},{24}1b,3/8,4/7,5/6,
{1},,
E

Re:MASTER


名前:
コメント:

タグ:

+ タグ編集
  • タグ:
最終更新:2026年09月11日 21:13