アットウィキロゴ

SERAPHIC SYNDROME

アーティスト 堀田英邦

BPM BASIC ADVANCED EXPERT MASTER Re:MASTER
216 6 8 12 14 -

EXPERT MASTER Re:MASTER
譜面制作者 Jack はっぴー -

BASIC


ADVANCED


EXPERT


MASTER

(216)
{4},,,{16}1,8,1,8,
{8}2b/7b,,6,6,4,5,3,3,24,5,46,,{16}7,6,5,4,1,2,3,4,
{8}8b,,2,2,4,3,{16}5,6,7,8,4,,4,,{4}1-5[8:1]/3,1,,
{24}3,,,2,4,2,{4}4-8[4:1],,,{24}7,5,7,5-1[4:1],,,{4},,,
{16}24,,,,,57,,,,,,18,,,,,1,8,1,8,1,8,1,8,1,8,1,8,1,8,1,8,
{8}2h[8:1],6h[8:1],4h[8:1],7h[8:1],{4}5,46,

7<3[4:1],3,{16}2,,2,,2,3,4,5,{4}6,8-4[8:1],5-3[8:1]*-7[8:1],,
{8}2>6[4:1],2,6,,7,7,{16}7,6,5,4,{4}3,1-5[8:1],8p4[8:1],3,
{16}1,2,3,4,{8}5,7,7,1,{16}1,2,3,4,{8}5,7,7,1,24,,57,,
{16}8,7,6,5,{8}4,2,2,8,{16}8,7,6,5,{8}4,2,2,8,18,6,25,,
{16}A3,E3,B2,B1,E1,A8,A7,E7,B6,B5,E5,A4,A1,E1,B8,B7,
E7,A6,A5,E5,B4,B3,E3,A2,D1,D8,D7,D6,D5,D4,D3,D2,

{4}D1f,,,{8},4h[1:1]/6h[1:1],{1},
5h[8:7]/7h[8:7],{8}4h[4:1]/6h[4:1],,,3h[8:3]/5h[8:3],,,,
{1}2h[8:7]/4h[8:7],{8}3h[1:1]/5h[1:1],{1},
4/6<5[2:1],{16}2,4,2,4,3,5,3,5,4,6,4,6,3,5,3,5,

{8}3-5[8:1],,38,,6,7,8,1,2/4-8[8:1],,4^1[8:1],,6,5,{4}4,
1-5[8:1]/2,4,4,{16}7,5,7,5,7,,,,3,4,3,,6,5,{8}6,47,47,
,14,1/4-8[8:1],,24,,3,2,1,8,7,,5,6<3[4:3],4,4,
{4}5,4,5,4,{16}34,,,12,,,78,,,56,,,3-7[8:1]/4-8[8:1],,2,,

{4}3b/4b,,,4bh[8:13]/6b,{8},6,5,3,2,1,8,7,
6,5,3,2-6[8:1],,5-1[8:1],,7^4[8:1],,8,8,,{16}2,1,2,1,2,,34,,
{2}3h[4:1]/4-8[8:1],{16}7,6,5,4,3,,1x/3x-7V14[8:5],,{1},
{2}5-1[8:1]/6h[4:1],{16}2,3,4,5,{8}6,6x/8x,,,28,,,35,35,,

2>6[4:1],4<8[4:1],{4}6<2[4:1],,4,{8}3<7[4:1],5<1[4:1],7>3[4:1],,,6,,4,
2>6[4:1],4<8[4:1],{2}6<2[4:1],{8},5,46,4/6-1[8:1],,5-1[8:1],,8,8,,
4^1[8:1],,6,7^4[8:1],,1,2^7[8:1],,4,5^2[8:1],,7,8-4[8:1],,1>8[4:3]/8,,{1}B2/B3/E3f,

{8}1b/8b,,E1,E7,C,E3,{4}E5,6bpp3[8:5],3,4,{8}2,2bpp7[8:7],
{2},{8}1,1,,8b,{12},,8,7,6,5,4,3,2,{8}1,,
2b-7[8:1],,,6b-1[8:1],,,4,,2bqq5[8:5],,5,,4,,6,6bqq1[8:7],
{2},{8}2,2,,3bpp7[8:7],{1},{8}6b-1[8:1],,3,2b-7[8:1],,4,5,,

5,,{16}8,1,2,3,48,5,6,7,8,1,{8}2,,17,17,,4,2,4,6,
,24,24,,6,6,{16}7,5,7,5,7,,2,4,2,4,{8}2,,57,,57,
8-4[8:1],4,8b,,1,7,1,3,1,5h[4:1],1,,1,5,1,3,
1-5[8:1],7h[4:1],1,,1,3,1,6,1,{16}7,6,5,,2,3,4,5,6,7,{8}8,,

68,,E7,13,,E3,57,,E6,24,,E4,68,,
68,,E7,13,,E3,57,,E6,24,,E4,6,7,7,
57,,E7,24,,E3,57,,E7,24,,E3,57,
8,8,5,E7,1,4,E3,8,5,E7,1,4,E3,8,5,E7,E5,

E3f,,6h[4:1],,3h[8:1],5h[4:1],,2h[4:1],,4h[8:1],3h[8:1],5h[8:1],4h[8:1],6h[4:1],,5h[4:1],
,{2}7h[2:1],{8}4h[8:1],6h[8:1],3h[8:1],5h[4:3],,,4h[8:3],,,{4},
3/5h[8:1],3/5h[8:1],3/5h[8:1],3/5h[8:1],{8}3/5h[8:1],2,1/5h[8:1],8,5h[8:1]/7,,1/5h[8:1],2,
{4}3/5h[8:1],3/5h[8:1],3/5h[8:1],3/5h[8:1],{8}35,2,{4}2-6[8:1]/4-8[8:1],,5x/7x,
4b/8b,{16}7,8,1,2,3bx/5bx,,,,2,1,8,7,{6}4bx/6bx,4b/6b,3b/5b,3b/5b,5b/7b,2b/4b,
1-5[12:1],B6f,7-3[12:1],E2f,2-6[12:1],E8f,8h[2:1],,,{16}6,5,4,3,{4}2-7[8:1]/6-3[8:1],

2b/6b,,{8},{4}4-1[8:1]/8-5[8:1],4b/8b,{8},{4}24,45,5-1[8:1]/7-4[8:1],
5b/7b,{8}38,{4}38,1-5[8:1]/2-6[8:1],12,{8},7-4[8:1],,4,3-8[8:1],,8,
7,6,5,4,3,{16}2,6x,{8}1,8,7,6,5,{16}4,8x,{8}3,2,1,8,7,
2hx[4:1]/6,5,4,3,2,1,48,48,48,4h[4:5]/8h[4:5],,{1},{4},
{16}67,,,78,,,18,,,12,,,23,,4,,23,,,12,,,18,,,78,,,6<5[1:1]/7,,5,,{1}4b,,

3h[8:13]/5h[8:13],{4},,,{8},4h[8:3]/6h[8:3],
{2},{16}3,5,3,5,4,6,4,6,{8}5,8,8,35,1,1,{2}4/6-4^3-5[2:1],
{8}1,1,2,2-4^5-3[2:1],,8b,{2},{8}7,7-1^2-8[2:1],,5b,
,4,{2}4,2b-8^7-1[2:1],{8}4,4,,5,5,,
24,,{16}1,2,3,4,1,2,3,4,1,,{4}1-5[8:1]*V38[4:1],,,{8}17,26,{4}3/5-1[8:1]*V74[4:1],
,,{8}35,2,1,78,6,5,{4}4^1[8:1],4^7[8:1],4V26[4:1]*-8[8:1],
,,{8}78,16,{4}2/5-2[8:1]*-8-4[4:1],,,{8}13,4,35,
6,57,48,,26,7,68,6h[4:1]/8h[4:1],,,4h[4:1]/6h[4:1],,,37,3/7-5[8:1]b,,

1-4[8:1]b,,7^5[8:1]b,8,1^4[8:1]b,,7-5[8:1]b,,1-4[8:1]b,,7^5[8:1]b,8,1,1,,26,
2-4[8:1]b/6,1,8-5[8:1]b,,2^4[8:1]b,,7^5[8:1]b,8,2-4[8:1]b,1,8,8,,24,{16}24,5,6,7,
{8}8-5[8:1],,3h[8:5]/8,,,1,,1,,{16}38,27,16,58,{8}7x,5x,3x,1x,1b,

{16}3,4,5,,1,,1,,24,,,,3,4,5,,1,,1,,{4}2/4-8[8:1],3-7[8:1]/4,3,
{16}6,5,4,,8,,8,,57,,,,6,5,4,,8,,8,,57,,3,,5,6,7,8,1,,,,
3,4,5,,1,,1,,24,,24,,3,4,{8}5,1,1,24,,2b/4b,3b/5b,4b/6b,,
{16}6,5,4,,8,,8,,57,,57,,6,5,4,,8,,8,,57,,57,,6,7,8,1,2,,,,
{12}6bx,5,7,3bx,4,2,6bx,5,7,{16}3bx,2,1,8,7,6,5,4,3,2,{8}1-5[8:1],5,1b,,,
{1},,,,E

Re:MASTER


  • MASTER譜面を追加しました。修正等ありましたらよろしくお願いします。 -- けもがみ (2026-08-10 21:27:13)
名前:
コメント:

タグ:

+ タグ編集
  • タグ:
最終更新:2026年08月10日 21:27