| アーティスト |
RB.H × lixound × 薛南 |
BASIC
ADVANCED
EXPERT
(200){4}2h[4:5],,,,,4,4h[4:5],,,,,5,5h[4:5],,,,,7,7h[4:3],,,,,,B6h[4:3]/E6h[4:3]/A6h[4:3],,,,,,B8h[4:3]/E8h[4:3]/A8h[4:3],,,,,,
B2h[4:3]/E2h[4:3]/A2h[4:3],,,,,,D5/A4f/D4/E5/E4/B4,,,,,,{1}3x>6<3[1:2]/4hx[4:9],,,{4}2bh[4:3],,,,{8}1h[4:1]/3h[4:1],,,1x/3x,,,8,,1/7,1/7h[8:5],,,,,8,,6/7,,5,5,,2/4,2b/4b,,3,3,5,5,4,4,6,6,5/6,,4/7,4h[8:3]/7h[8:3],,,,,3,3,6,6,2,2,7,7,{16}1x,8x,1x,8x,1x,8x,1x,8x,1x,8x,1x,8x,1bx-5[4:1]b,,,,
{8},,,,7h[1:1],,5,5,,6,6,,5bx,,4/5,,2h[1:1],,,4,4,,3<6[4:1],,,,,,5/6,,7/8v3[4:1]b,,,,,,2h[1:1],,1,1,,8,8,,1,,2/8,,7bx<4[4:1]b,,,,3,,2,,
1/2q6[4:1],,,,8h[2:1],,,,{1}B6/B5/E6f,{8}7,7,8,,1/6,,2/5,,3,3,4,2,6,6,5,7,2,2,1,,3b/8b,,,,2,2,1,,3/8,,4/7,,6,6,5,7,3,3,5,5,1b-5[8:1],,,,7,,8,,8h[4:1],,6h[4:1],,4h[4:1],,2b-7-4-1-6-3-8[1:3],,
{1},,,{2},6h[2:7],{4}E8,E7,E6/D6,,E5,E4,E3/D3,,E1,E8,E7/D7,,Ch[2:1],,,,{1}7-4-8-3[4:5],,2-5-1-6[4:5],,7p2<8-3[4:5],,2q7>1-6[4:5],,{2}E7h[1:2],,E8,C,E6f,,,,{4}3,3,4,4,5,5,6/4,6/4,{8}3,3,5,5,4,4,6,6,3,4,5,6,6,5,4b,,2,2,4,3,5,5,4,4,6,6,5,7,1x,1x,8x,,7/8,7/8,7/8,,5b/6b,,3b/4b,,{12}2h[12:2],,4h[12:2],,3,,6h[12:2],,5h[12:2],,7,,{16}1x,8,1,8,1,8,1,8,1,8,1,8,1,8,1,8,{1}2b,{8}3,3,6,6,{16}4bx,5,4,,2x/7x,,,,
{2}1-5[8:1]/2-5[8:1],8-4[8:1]/7-4[8:1],1-5[8:1]/2-5[8:1],{8}7/8,7/8,1/6,,{16}3,4,3,4,3,4,3,,6,5,6,5,6,5,6,,{8}3b/7b,,2,2,4,3,2x/5x,,{16}6h[16:3],,,7h[16:3],,,8,,{4}8-4[8:1],2,{16}3h[16:3],,,2h[16:3],,,1,,{4}1-5[8:1],7,{8}6,6,5/7,,3,3,2/4,,5/6,7,1/8,2,3/4,,2/5,,{2}4-8[8:1]/3-8[8:1],5-1[8:1]/6-1[8:1],4-8[8:1]/3-8[8:1],{4}6/5,3/4,{16}2bx/4bx,,,3bx/5bx,,,6bx/4bx,,,6bx/4bx,,,3bx/7bx,,2bx/8bx,,2bx/8bhx[8:3],,,,,,E1,E8,E7,E6,E5,E4,{8}E3f/A2/D3,,1bx,1x,8x,2x,7,7,5,6,4,3,5,6,7-3[8:1]/8,,,,1/2,,{16}2,4,2,4,{4}2,1/3,6/8,{16}7,5,7,5,{4}7,1/8,{8}2b/4b,2b/4b,,7b/8b,7b/8b,,2b/1b,2b/1b,,7b/5b,7b/5b,,1b/8b,1bh[4:1]/8bh[4:1],,,{16}1x,2x,3x,4x,5x,6x,7x,8x,1x,2x,3x,4x,5x,6x,7x,8x,{4}1hx[2:1],,7,3b/5b,
{8}2,2-5[8:1],,1,1-6[8:1],,5x,,3,3-8[8:1],,4,4,,1bx/7bx,,6,6-1[8:1],,5,5-2[8:1],,1x,,8bx,8,2bx,2,4bx,4,6bx-2[8:1]b,,{1},E2h[2:1]/B2h[2:1]/E3h[2:1]/B1h[2:1],E6h[2:1]/B6h[2:1]/E7h[2:1]/B5h[2:1],{4}E4h[2:1]/B2h[2:1]/E3h[2:1]/B3h[2:1],,,1,7bx/8,5bx/3,2bx/1,4bx/6,8bx/7,4bx/3,1bx/2,5bx/7,3bx/4,2bx/1,7bx/8,1bx/6,4bx/3,7bx/5,
2bx/4,1bx/8bx,8bhx[8:1]/7h[8:1],7bhx[8:1]/8h[8:1],6bhx[8:1]/5h[8:1],7bhx[8:1]/8h[8:1],1bhx[8:1]/2h[8:1],2bhx[8:1]/1h[8:1],
3bhx[8:1]/4h[8:1],2bhx[8:1]/1h[8:1],1bx/8bx,2/7,{16}3bx,6,3,6,{4}3,{2}4bx-2[8:1]/5bx-7[8:1],1bx-5[8:1]/8bx-4[8:1],3bx/6bx,{16}7,8,7,8,{4}7-5[8:1],
{4}8b-4[8:1],7b-3[8:1],1b,2b-4[8:1]/8b,1b-5[8:1],2b-6[8:1],8b,1b/7b,{8}5bx/6bx,5/6,4bx/7bx,,3bx/4bx,3/4,2bx/5bx,,{4}1bx-6[8:1],8bx-3[8:1],4bx-7[8:1],6bx-1[8:1],5bx-2[8:1],7bx-4[8:1],1bx,1bx/8bx,{16}1,8,1,8,1,8,1,8,2,7,2,7,2,,,,3,4,5,6,7,8,1,2,3,4,5,6,7,8,1,2bx,{4},D6/A5/D5/A4/D4/E4/B4/B5/E6/E5f,E
MASTER
(200)
{4}2^5[2:1],,,6h[4:3],,5,5p8[2:1],,,7h[4:3],,8,8q6[2:1],,7,7h[2:1],,8,8h[2:1],,1,1,,7,
7^4[2:1],,,3h[4:3],,4,4q1[2:1],,2,2h[4:3],,1,1v3^4[2:1],,2,1h[2:1],,4,4h[2:1],,5,5h[2:1],,8,
{1}8s4[1:2],,{4},,,56,
{1}5h[4:3]/7h[4:3],{8}4h[4:1]/6h[4:1],,,3h[8:3]/5h[8:3],{2},
{8}24,2h[8:5]/4h[8:5],{4},,,{8}3h[4:1]/5h[4:1],,,4h[4:1]/6h[4:1],,,57,,
6,7,8,7,8,1,8,1,2h[4:1],,1,1h[4:1],,{16}8x,,,7x/8x,,,
6,5,6,,3,4,3,,6,5,7,,28,,,,1,1,1,1,1,1,1,1,1,1,1,,{4}2x/8x,
1v3-5[8:3],1/6-8[8:1],6,{8}7,56,,67,{4}6-1[8:1]/7,6/7-4[8:1],78,
5v7-1[8:3],5/2-4[8:1],2,{8}3,2,{16}1h[16:3],,,2h[16:3],,,{8}3,3,2bh[4:1]/4bh[4:1],,,
3b/4b-8-6[8:3],2,1-5[8:1]/4,,1,,7,58,,67,{4}6v1[8:1]/7,6/7^4[8:1],78,
2-4[4:1],4-1[4:1],1-5[4:1],5-8[4:1],8-6<5[4:3],6,{2}5b,
E6h[4:3]f,{4},1,{16}2,8,2,8,1,7,1,7,1,2,3,4,7,6,5,4,
1,5,1,5,8,6,8,6,8,1,2,3,45,6,7,8,3,1,3,1,4,8,4,8,5,7,3,1bx,,,,,
2,6,2,6,1,5,1,5,8x,7,6,5,8,7,6,5,1,4,1,4,2,5,2,5,3x,4,5,6,4,5,6,7,
{4}8z4[2:1],,,{8}3,2,{4}1^4[8:1]/4^7[8:1],14,8-3[8:1]*-5[8:1],8,
{1}2b/6b,{2},1h[2:1],{1}E3h[1:2],{2}1,8,{1}7>5[4:5],{2}C,8qq1[2:3],{1}5,{2}4,23,
1bh[1:8]/2,{4},2,2,2,3,3,E3,,,3,3,3,4,4,E5,,,5,5,5,6,6,E7,,,7,7,7,8,,
{1}8>7[4:5]*<1[4:5],{2},{8},,1,7,{1}2b/6b,,
{8}4h[4:1]/6h[4:1],,,4h[4:1]/6h[4:1],,,46,,5,5,6,4,4,3,5,4,
5h[4:1]/3h[4:1],,,5h[4:1]/3h[4:1],,,53,,4,4,3,5,5,6,46,,
2b/4x,3,3,7b/5x,6,6,2b/4x,3,35,35,26,26,,{16}7x/8x,,,1x/2x,,,
3,4,3,4,3,4,3,,6,5,6,5,6,5,6,,{6}3h[12:1]/4h[12:1],2h[12:1]/3h[12:1],12,{12}7,8,7,17,,,
{16}8,8,8,8,8,8,8,8,8,8,8,8,8-4[8:1],8,8,8,{1}Cf,{16}4,5,6,7,8,1,2,3,4,5,6,7,84,,,,
1b/2b,,3,4,,6,5,,7,8,7,,12,,3,,3,4,2,8,1,7,5,6,{8}4,35,26,,
{16}78,,6,5,,3,{8}4,12,38,47,56,7bh[4:1]/8bh[4:1],,,78,{16}1,2,3,4,56,,,,
56,,7-4[8:1],8,,8,{8}7,2,2,34,45,56,{16}7,8,,2,1,,{4}3-5[8:1]/8-6[8:1],38,
{16}7b,5,7,5,7,6,7,6,7,8,7,8,{8}16,,7-3[8:1],8,7/1w5[8:1],2,{4}1,3x/7x,
{16}5b/6b,,7,8,,2,1,,3,4,3,,56,,7,,7,8,6,4,5,3,1,2,{8}8,71,62,,
{16}3h[8:1]/5h[8:1],,,6h[8:1]/7h[8:1],,,1h[8:1]/2h[8:1],,,3h[8:1]/4h[8:1],,,{8}5b/6b,1b/2b,
3bh[4:1]/7bh[4:1],,,{16}2,2,8,7,6,5,4,3,2,1,
58,,7^2[8:1],6,,6,{8}7,3,3,24,,18,{16}7,5,,3,4,,{4}2-4[8:1]/5^8[8:1],25,
{16}7x,5,6,4,5,3,4,2,1x,3,8,2,7,1,6,8,{8}5,5,46,46,37,37,2-6[8:1],,
{16}12,8,7-2[8:1],,,,67,5,4-7[8:1],,,,34,2,1-5[8:1],,,,18,7,6b,,,,7,5,6,,2,4,3,,
A5,A6,A7,A8,A1,A2,A3,A4,E1,E8,E7,E6,E5,E4,E3,E2,{1}1xqq3[2:1]/5xpp3[2:1],
{8}2b/4,1^4[8:1]/5b^8[8:1],,15,,,{24}6,5,6,5,,,{8}47,4q1[4:1]b/7V53[4:1],{2},{24}2,4,2,4,,,
{8}15,1xV35[4:1]b/5p8[4:1],{2},{24}7,6,7,6,,,{8}8h[16:1],8h[16:1],1h[16:1]/7h[16:1],1h[16:1]/7h[16:1],
2h[16:1]/6h[16:1],2h[16:1]/6h[16:1],3h[16:1]/5h[16:1],3h[16:1]/5h[16:1],
{1}4bV26-8[4:5],{2},5h[2:1],{1}7>3[2:1],{4}4-8[8:1],,26,1b-6[8:1]/7-4[8:1],
7bx/1-3[8:1],1/5b-1[8:1],5^8[8:1]/4b-8[8:1],5bx/4^1[8:1],
4/7b-2[8:1]*-4[8:1],7bx,{8}3bx,3,{4}2b-5[8:1]/4-7[8:1],
4bx/2-8[8:1],2/6b-2[8:1],6/1b^4[8:1]*^6[8:1],1bx,5bw1[8:1],5bx,3b/7b,2b-6[8:1]b,
2/1b-5[8:1],1/8b-4[8:1]b,8/7b-3[8:1],7/6bv1[8:1]b,6/5b^8[8:1],5/4bq1[8:1]b,4/3b,3b/2b,
{8}1x,1x,28,37,{16}6,5,7,4,{4}8p4[8:1],8/2^7[8:1]b,2/5<4[4:1],5,,
E5hf[2:1],E4h[4:1]/E6h[4:1],,{16}1,7,1,7,
{4}2bx^5[8:1]/6bx^1[8:1],2/6bx-2[8:1],6/8b-4[8:1],8/1b^4[8:1]*-6[8:1],
1bq5[8:1],1/7bp3[8:1],7/8b-4[8:1],8-5[8:1]*-6^5[8:1]/5b,
8bx-2^3[8:1]*-3[8:1],8b,{16}7,7,1,,{4}2-4[8:1]/6-4[8:1],
2bx^7[8:1]/6b,2/5b-1[8:1],5/8b-3[8:1],8/4b-2^1[8:1]*^5-7[8:1],4bx-8[8:1],4bxw8[8:1]b,4bx,2x/6x,
{16}3,4,2,5,1,6,8,7,5,6,4,7,3,8,2,1,3,8,3,8,2,7,2,7,{32}1,8,7,6,5,4,3,2,1,8,7,6,5,4,3,2,
{4}1-4[8:1]/5-8[8:1],{16}1b/5b,B2/Cf/B6,,,{2},{1},,,E
Re:MASTER
- EXPERT譜面を追加しました。修正等ありましたらよろしくお願いします。 -- Sugar (2026-08-10 12:40:57)
- MASTER譜面を追加しました。修正等ありましたらよろしくお願いします。 -- けもがみ (2026-08-10 21:27:02)
最終更新:2026年08月10日 21:27