アットウィキロゴ

Aegisfortia

アーティスト お月さま交響曲

BPM BASIC ADVANCED EXPERT MASTER Re:MASTER
238 6 9 12+ 14+ -

EXPERT MASTER Re:MASTER
譜面制作者 発光ビーバー Cement Forest -

BASIC


ADVANCED


EXPERT

(238){1}1>6p8[4:11]/7h[1:3],,,,6q4>7[4:11]/5h[1:3],,,,{4}7,7h[2:5],,5,5,,,6,6,,,5,5,,4/5,,2h[4:3],,,4,4h[2:1],,5h[2:1],,7h[1:1],,,,1,1,2b/6b,,3/4,3/4,2h[4:1]/5h[4:1],,7/8,7/8,6h[4:1]/1h[4:1],,
6/5,6/5,7h[4:1]/4h[4:1],,2/1,2/1,3/8,3/8,6/5,6/5,7h[4:1]/8h[4:1],,3/4,3/4,2h[4:1]/1h[4:1],,6/5,6/5,7/8,7<4[4:1]/8>3[4:1],,,2bx/5bx,,

{8}3/4,,2,2,4,,3/5,,6,,5/6,,3,,4/3,,6/5,,7,7,5,,6/4,,3,,4/3,,6,,5/6,,2,,3/4,,7,,6/5,,3,,2/4,,6,,5/7,,5/6,,5/6,,3/4,,{4}3-8[8:3]/4-7[8:3],{1},{8}6/5,,7,7,5,,6/4,,3,,4/3,,6,,5/6,,3,,2,2,1,,1/2,,7,,7/8,,2,,1/2,,8,,5/7,,1,,4/2,,7,,7,,5/6,,{4}6-1[8:3]/5-2[8:3],{1},{8}2,2,8,,3b/7b,,,,

{2}4V28[4:5],,,7x,6h[2:1],7h[2:1],8h[2:1],1x-5[4:1],{4}7hx[4:1],,6/8,6/8,2hx[4:1],,3/1,3/1,6hx[4:1],,7/5,7/5,3hx[4:1],,2/4,2/4,{2}5V71[4:5],,,2x,3h[2:1],2h[2:1],1h[2:1],8x-4[4:1],{4}5x,5,4/6,4/6,3/7,3/7,2/8,2pp3[2:1]/8<4[2:1],{2},,1h[2:1],Cf,

{4}7/8,7-4[8:1]/8-4[8:1],,3,2/1,2-5[8:1]/1-5[8:1],,6,7/8,5,1/2,4,7/8,6,4/5,3,2/1,2-5[8:1]/1-5[8:1],,6,7/8,7-4[8:1]/8-4[8:1],,3,1/2,5,7/8,4,1/5,1-4[4:1]/5-8[4:1],,,7h[4:1],8x,2h[4:1],1x,6h[4:1],8x,3h[4:1],1x,5h[4:1],8x,4h[4:1],1x,2/3,2-7[4:1]/3-6[4:1],,,8h[4:1],7h[4:1],6h[4:1],5,{8}7,7,5,6,2,2,4,3,{2}5h[1:1],E5,B5/B4/Cf,,

{1}1b/8bV64-2[4:7],,,4h[2:1]/3-8[4:1],8h[2:3]/5q6[4:5],,{2}6h[2:1],7h[2:1],8b,,6h[2:1]/8h[2:1],{8},,5,5,{2}4h[2:1]/6h[2:1],{4},3/4,{2}1h[2:1]/3h[2:1],{8},,4,4,{2}5h[2:1]/3h[2:1],{4},4/6,{2}5h[2:1]/7h[2:1],{8},,8,8,{2}1h[2:1]/7h[2:1],{4},1/2,{2}4h[2:1]/2h[2:1],{8},,1,1,{1}2h[2:3]/8h[2:3],,1bp8[4:7]*>7[4:7]/7b,,,{8}1/8,,2/4,2/4,,5/7,5b/7b,,

{8}7/8,,1/6,1/6,,3/4,3/4,,2,2,4,3,,1/2,1-5[8:1]/2-5[8:1],,,,8-4[8:1]/7-4[8:1],,,,3,,2-5[8:1],,1-6[8:1],,4bx,,,,7,7,8x,,2,2,1x,,6,6,8x,,3,3,1x,,5,5,8x,,4,4,1x,,2/3,,2-5[4:1]/3-8[4:1],,,,,,6x/8x,,1/7,,2/8,,1/3,,2,2,8,8,6,6,4,,{2}3/7,E2h[1:1],E6h[2:1],B2/B3/B5/B4/E4f,{8}7/8,,1/6,1/6,,3/4,3/4,,6,6,5,7h[4:1],,1,{2}1>4[8:1],7v2[8:1],3v6[8:1],8<5[8:1],{4}3,{8}1/2,,3/8,3/8,,5/6,5/6,,7,7,5,6,,7/8,7-4[8:1]/8-4[8:1],,,,2-5[8:1]/1-5[8:1],,,,6,,7-4[8:1],,8-3[8:1],,5bx,,,,2,1,3b,,7,8,6b,,2,1,4b,,7,8,5b,,2,8,4b,,7,1,5b,,{1}2-4-1[4:1]/6-8-5[4:1],{4}1x/5,1/5,2/6,2/6,{8}3,3,4,2,6,6,5,7,3h[4:3],,,,4,,4w8[4:1],,{2},{4},1/8,

{1}1bpp4[4:7]/8bqq5[4:7],,{4},,,,4/5,4/5,Cf/B3/B6,,7/8,7/8,{8}6,6,5,,1/2,,1/2,,3,3,4,,{4}6/8,6/8,1/3,1/3,{2}2hx[4:1]/4hx[4:1],7hx[4:1]/5hx[4:1],{12}6x,4x,6x,4x,,,3x,5x,3x,5x,,,7,5,7,5,,,2,4,2,4,,,{8}3hx[4:1]/5hx[4:1],,,,2/6,2/6,3/7,3b/7b,E

MASTER

(238)
{32}7b/8b,1/6,2/5<3>5[16:115],3h[32:45]/4,,,,,{4},{2},,,4h[2:3],,,,5,5,4,4,3,3,2,1h[2:1],
{8}4,4,3h[4:1]/5h[4:1],,,,5,5,6h[4:3]/4,,,,4,,5,5,
7,7,7h[4:1]/8h[4:1],,,,2,2,1h[4:1]/3<6[4:1],,,,7,7,5,5,
6,6,5h[4:1]/7h[4:1],,,,4,4,3h[4:1]/5h[4:1],,,,{2}B4hf[1:2]/B2,E2,E1,E8,7-3[4:1],

{8}8bx,,2/8,,7,7,5,6,4/7,,4/7,,6,6,4,5,
2/4,,2/4,,1/5,4,1h[8:1]/5h[8:1],,{16}2,4,3,,{8}3,,2/5,2/5-7[8:1],,4,
4bx,,5/8,,5/8,6,5/7,6,2/5,,2/5,,2/5,4,3/5,4,
5/8,,5/8,,4/7,5,4h[8:1]/8h[8:1],,{16}7,5,6,,{8},2-5[8:1]/4-8[8:1],,2x/4x,,,

8b,,2,2,4,,4/6-1[8:1],,5>2[8:1],,8,,8,7,1/6,,
4/8,,7,7,5,,3-8[8:1]/5,,4<7[8:1],,1,,1,2,3/8<4[4:1],,
4q1[4:1],,3,3,,2,2>6v1[2:1],,1,,8,8,,7,7h[4:1],,
8,,1/2,3-5[8:1]/8,,7,7h[4:1],,5,{16}5,6,{8}4,3-1[8:1]/5-1[8:1],,3/5,,,

2/8,,4,5,6<1[8:1],,4,3,2h[4:1],,1h[4:1],,2,1,3/8,,
1x/6x,,5x,4x,3x>8[8:1]b,,5,6,7h[4:1],,8h[4:1],,7,1,2/6,,
{16}2/5,,3,4,2,,{8}1-5-7[4:1]/5,,,8>2[8:1],,{8}8p4[4:1]b,,,3qq8[8:5],,,4<7[4:1]b,,
,,,,,,7/8,,4/6,6,3/5,,2/4,2h[4:1]/4,,{32}1,8,7,6,

{1}5bx-3-8-6-2[4:7],,{2}1h[2:1],,7h[2:1]/8,{12}1,1,8,2x/7x,,,
{16}7b,8,7,8,7,,5/6,,4/5,,3/4h[4:1],,,,3,,2b,5,2,5,2,,4/3,,5/4,,6/5h[4:1],,,,6,,
7b,4,7,4,7,,5/6,,4/5,,3/4h[4:1],,,,3,,3b,4,3,4,3,,1/2,,1/8,,7h[4:1]/8,,,,{32}8,1,2,3,
{1}4bx-6-1-3-7[4:7],{4}E4/E5/B4,,,5,{2}5h[2:1],,3h[2:1]/4,{12}2,1,8,7,6,5,
{4}2/4,2/4,7/5,7/5,1/2,1/2,3/8,4/7,{12}7,5,6,3,5,4,6,4,5,3-7[8:1],,,{4}6h[4:3],,,8,

{32}7b/8b,1/6,2/5,3/4,{8},5,3-6[8:1],7-1[8:1],3,7-3-5-8[2:1],,4,,2,2,,1,2>4[8:1],8,
2b,7-1[8:1],5,7b,3,3,1b<6[8:1],4,1b,3-7[8:1],5,3b,6-1[8:1],8,6b,,
2b/8b,,7,1,6>4[8:1],8,6,3,1-5[8:1],2V46[4:1],1,2,,7,8-3[8:1]*-5[8:1],,
8b,,1/2,3/8,,7/8,1-5[8:1]/6-1[8:1],,1b/6b,,4/8,3/7,,{16}1,8,1,,,,

{32}8/2bx,3,4,5,,,,,{4}7x/E5,{32}1/7bx,6,5,4,,,,,{4}2x/E4,
{32}1/2bx,3,4,5,,,,,{4}7x/E6,{32}8/7bx,6,5,4,,,,,{4}1x/E5,
{32}8/2b,3,4,5,,,,,{4}8x/E4,{32}1/7b,6,5,4,,,,,{8}3x>7[4:1]/E6,,7bpp3[8:4],,5,5>4-7[8:3],,,,,
1b-5-2[8:3]b,,8,8,,1,1h[4:1],,2,3-6[8:1],8-3[8:1],3,8,5,4-1[8:1]*-7[8:1],,
4b,,,,{12}3bx,5,4,6-1[8:1]b,,,{8}A6f/3bhx[8:3],,,1bhx[8:3],,,{24}3bx,4,5,6,7,8,

{1}1bxqq6qq3qq8[2:7]/5bx,,,B5h[2:1]/E6h[2:1]/B6h[2:1],
8xpp3pp6pp1[4:13]/7x,B4/B5/E5,B7/B8/E8,B4h[2:1]/E4h[2:1]/B3h[2:1],
{4}1/2h[2:1],,3,3/4>1[4:1],6h[2:1],,8,5/7>2[4:1],3h[2:1],,4,3/4<7[4:1],1h[2:1],,{12}8,1,8,1,8,1,
2x/8,7,6,5,6,7,1/8,2,3,4,3,2,1/7,6,5,4,5,6,7/2,3,4,5,4,3,
{4}2h[4:1]/8,{12}1,1,2,2,3,3,{4}4>7pp3[2:3],6x,,E6f,,{1},

{4}2b/5b,{16}3,4,3,,5,,3,4,3-8[8:1]b,,,,{2}6h[8:13],,,{8},5,4-1[8:1]/5-8[8:1],,
D5f/A4/D4/A5/D6,,,,{16}2,1,2,1,3,8,4,7,
{8}5-2[8:1],,6,6,1<6[8:1],2,3,4,5>2[8:1],6,7,8,1,2,3h[8:1]/8h[8:1],,
{16}2b,1,2,,6,,3b,4,3,,8,,1,,1,,7b,8,7,,3,,6b,5,6,,4/7,,3/8-4[8:1],,,,

{8}8b,1,2-5[8:1],,2b<7[8:1],,6-1[8:1],,6b>3[8:1],3,2-7[8:1],,2b-5[8:1],,6-8[8:1],,
6b-2[8:1],5-3[8:1],6,5,1b,,2<5[24:5]b/8,,7bhx[8:5],,{24}4x,3x,2x,1hx[4:1],,,,,,,2/6,3/5,{4}4,
A1/E2/A2/A8/E1/Cf/B1/B5/A5,{8},3x/7x,,2x/6x,2x/6x,,3/4,3/4,4/5,4/5,5/6,5/6,7/8,1/8,
{4}1h[2:1]/2,,7h[2:1],,E5hf[2:1],,{32}6b,7b,8b,1b,2b,3b,,,{4},

{8}2bv5[8:1]b/6b,,2,7p3[8:1]b,2-8[8:1]b,7,2-6-4-1[2:1]b,4,2x,,7,7,,8,7<4[8:1]b,1,
7b,2-8[8:1]b,3,2b,6,6,8b>3[8:1]b,5,8b,7-5[8:1]b,4,7b,3-8[8:1]*-7[8:1],4,3b,,
1b/6b,,2,8,3<5[8:1]b,1v6[8:1]b,3,1,8-4[8:1]b,7V53[4:1]b,8,7,,2,1w5[8:1]b,,
1b,,7/8,6/1,,1/2,3v8[8:1]/8p4[8:1],,3b/8b,,1/5,2/6,,{16}8,1,{4}8,

{32}1x/7b,6,5,4,{8}1x,{4}1x/E5,{32}8x/2b,3,4,5,{8}8x,{4}8x/E6,
{32}8/7b,6,5,4,{8}8,{4}8/E4,{32}1/2b,3,4,5,{8}1,{4}1/E6,
{32}1/7b,6,5,4,{8}1,{4}1/E4,{32}7/2b,3,4,5,{8}7,{4}7-2[8:1]/6x-3[8:1],{8}6bx/7bx,,1/4,1/4,,5/6,4/7h[4:1],,
{16}2b,1,3,,6,,3b,4,2,,6,,{8}7b/8b,,6,6h[8:1],4,4h[8:1],2,2h[8:1],1,1,
2/8,,7-3[8:1],1-5[8:1],7<4[8:1],1>4[8:1],7,1,{4}8x,,,4>5[32:7]b,

{32}A4f/E4,E3,E2,E1,E8,E7,E6,E5,E4,E3,E2,E1,E8,E7,E6,E5,
E4,E3,E2,E1,E8,E7,E6,E5,E4,E3,E2,E1,E8,E7,E6,E5,
4x,3x,2x,1x,8x,7x,6x,5x,4x,3x,2x,1x,8x,7x,6x,5x,
4bx,3bx,2bx,1bx,8bx,7bx,6bx,5bx,4bx,3bx,2bx,1bx,8bx,7bx,6bx,5bx,

{1}4bx/E1f/B1/B8/A1/A8/D1,{8}2,1,8,7,1/6,2/5-8[8:1],,4,
3<6[8:1],1,3,8-3[8:1],,8-5[8:1],,1,2<7[8:1],4,2,5-2[8:1],,5-8[8:1],,4,
3<6[8:1],1,3,8-4[8:1],,8>3[8:1],,7,7h[2:1],,,,3,,{16}1,5,1,5,
{12}2b,4,2,6b,4,6,3b,1,3,7b,1,7,{24}2b,3,4,,6,,1b,2,3,,5,,8b,1,2,3,4,5,6/2,7,8,1,2,3,
4bxh[8:3]/7b,,,,,,,,,{32}1x,{128}8,,,7,,,6,,,5,,,{8}4/2b,8b>6[8:3]b,6b,A8f/4b,E

Re:MASTER


  • MASTER譜面を追加しました。修正等ありましたらよろしくお願いします。 -- Sugar (2026-08-07 15:51:32)
  • MASTER譜面のノーツの配置ミス、SLIDEの速度の修正、EXノーツの修正、改行による書式の整理を行いました。 -- けもがみ (2026-08-07 20:57:46)
  • EXPERT譜面を追加しました。修正等ありましたらよろしくお願いします。 -- Sugar (2026-08-10 20:10:28)
名前:
コメント:

タグ:

+ タグ編集
  • タグ:
最終更新:2026年08月23日 11:56