BASIC
ADVANCED
EXPERT
(180){1},{8}2h[4:1]/4h[4:1],,,,3,3,4,,2/5,,3/6,,7h[4:1]/4h[4:1],,,,7h[4:1]/5h[4:1],,,,6,6,5,,4/7,,3/6,,2h[4:1]/5h[4:1],,,,2h[4:1]/4h[4:1],,,,
3,3,5,,6,6,4,,3/5,,,,1h[4:1]/2h[4:1],,,,8h[4:1]/7h[4:1],,,,1h[4:1]/8h[4:1],,,,2b/7b,,,,
{4}4,3,2h[1:1],,4,4,4,,5,6,7h[1:1],,5,5,5,,3h[2:3],,4,4,5,5,5,,6h[4:5],,5,5,4,4,3x/7x,,{8}1/8,,3,3,,2/4,2/4,,1/8,,6,6,,5/7,5/7,,4/5,,2,2,,1/3,1/3,,4/5,,7,7,,6/8,6/8,,7,7,5x,6,,3/5,3x/5x,,2,2,4x,3,,6/4,6x/4x,,
7,7,8,6,,1/7,1x/7x,,2,2,1x/2x,,3b/8b,,,,
{4}2,2>6[8:3],,,8,8V64[8:3],,,1,1V36[8:3],,,8,8-4[4:1],,3,{8}2h[8:3],,,4,4h[8:3],,,5,5,,5/6,,7,,5/6p3[4:3],,{1},{4}2hx[4:1],1x,{8},3x/8x,3x/8x,,
{4}1b/7b,2b/8b,{8}7,7,6/8,,7,7,8,6,2,2,1/3,,{4}2b/5b,4b/7b,{8}6,6,5/7,,6,6,5,7,3,3,2b/4b,,{4}1/2,1/2,7/8,7/8,5/6,3/4,1/2,7/8,{2}8-4[8:1]/7-5[8:1],1-5[8:1]/2-4[8:1],{4}7/8,1/8,1h[4:1]/2h[4:1],,2b/8b,1b/7b,{8}3,3,2/4,,2,2,1,3,6,6,5/7,,{4}3b/8b,1b/6b,{8}2,2,1/3,,3,3,4,2,7,7,6b/8b,,{4}7/8,7/8,1/2,1/2,3/4,5/6,7/8,1/2,{8}2h[4:1]/4h[4:1],,,7h[4:1]/5h[4:1],,,3h[4:1]/5h[4:1],,,2h[4:1]/6h[4:1],,,{16}1x,8x,1x,8x,{4}1x>5[8:3],
{1},{12}4/6,,,,3/5,,3/5,,,,,,2/4,,,,3/5,,3/5,,,,4/6,,4/6,,,,5/7,,5x/7x,,,,,,6,,6,,6,,4,,4,,4,,5,,5,,5,,3/5,,,,,,4/6,,4/6,,4/6,,4/6,,,,,,{1}Chf[1:1],,
{1}2h[1:1],4h[1:1],5h[1:1],7h[1:1],1V35[8:5],8V64[8:5],2>6[8:5],{4}7-4[8:3],,,3,3h[4:7],B1,,E3,,B4,,7,7h[4:7],B8,,E7,,B5,,3,{8}4/6,,,3/5,,,4/6,,,2/5,,,4/7,,5/6pp3[4:3],,{1},{4}2h[4:1],1,{8},3/8,3/8,,
{4}1b/7b,3b/5b,{8}7,7,8,6,2,2,1/3,,3,4,5/2,,{4}8b/2b,6b/4b,{8}3,3,4,2,6,6,5/7,,6,5,4/7,,{4}1/3,1/3,6/8,6/8,1/8,2/4,4/5,5/7,7-4[8:1]/8-3[8:1],,2-5[8:1]/1-6[8:1],,7/8,7/8,1/8,3b/6b,{8}2,2,1,3,6,6,5,7,3,3,4,,6/8,,6/8,,7,7,8,6,3,3,4,2,6,6,5,,4bhx[4:1]/8bhx[4:1],,,,{4}6/8,6/8,1/3,1/3,1/8,5/7,4/5,2/4,{8}1h[4:1]/2h[4:1],,,5h[4:1]/6h[4:1],,,8h[4:1]/7h[4:1],,,4h[4:1]/3h[4:1],,,{16}3,4,3,4,{4}3,
{4}1/2,3/4,{8}6,6,5,,{1}5>2[2:1]/6p1[2:1],{8}7/8,,6,6,5,,{1}4<7[2:1]/3q8[2:1],{8}1/2,,1/2,,3,4,5/2,,6,5,4/7,,8,1,2/7,,1/8,,{4}1h[4:1],3h[4:1],5h[4:1],7h[4:1],6h[4:1],4h[4:1],2h[4:1],8<1[4:3],{1},B2hf[2:1]/Chf[16:7]/B6hf[8:3],E
MASTER
(180){8}3,3,5,5,2,2,4,4,
{8}3,3,5,6,4-2[8:1],,5,,
{8}6,6,4,4,7,7,5,5,
{8}6,6,4,3,5-7[8:1],,4b,,
{8}3,3,8,8,2,2,4,3,
{8}6,6,4,4,7,7,8,6,
{8}1hbx[4:1],,E5/B4/B5,,
{8}7hbx[4:1],,C,,
{8}8/1h[4:1],,{12}8,2,1,3-5[8:1]*-6[8:1],,,,,,
{8}7bx,,7,,57,,7/5-3-1-6[4:3],,
{8}7,,7,,7,,7,,
{8}57,,57,,67,,8/7V53[2:1],,
{8}1,,1,,2,,2,,
{8}2/4h[4:1],,2,,23,,2/3<1[2:1],,
{8}2,,2,,2,,12,,
{8}2/8h[4:1],,2,,2/1h[4:1],,2,,
{8}2/3h[4:1],,2,,2^4[8:1]/4^6[8:1],,,,
{8}7,7,E6,,1,1,E4,,8,8,E5,,
{8}1x,E7/B6,E2/B2,,
{8}8<4[4:1],,E4,,1>5[4:1],,E6,,
{8}7h[4:1],,E5,,3x,E6/B5,E3/B2,,
{8}7h[4:1],,E2,,3,3,E8,,
{8}2h[4:1],,E1,,3x,E5/B5,E3/B2,,
{8}7,7,E1,,3-8[8:1],,E5,,
{8}7,,7/8w4[8:2],,,,,,
{8}2b/6b,,4,3,2-6-8>4[1:1],,4,,
{8}5,,5,,6,,7,7,
{8}4/8h[4:1],,5,5,5/7-2V84[4:3],,4,,
{8}3,,3,,2,,14,,
{8}2h[4:1],,3,4,35,,4,5,
{8}4/6h[4:1],,5h[4:1],,4h[4:1],,3,,
{16}E2,E3,E4,E5,A8,A7,A6,A5,D2,D3,D4,D5,6x,,,,
{16}1bx/7bx,,,,,,,,2,,8,,3^8[8:1]/7^4[8:1],,,,
{16}3b/7b,,,,1bx/5bx,,,,12,,3,,78,,6,,
{16}45,,4/3h[4:1],,,,1,2,1,,38,,4/7^2[8:1],,,,
{16}5,,,,4,,4,5,3-8[8:1],,3,,4,,5,,
{16}6,,7<3[16:3],,,,2,,1w5[8:1],,,,,,,,
{16}37,,,,46,,7,5,6,,2,4,3,,6,5,
{8}7,1,28,37,4-1[8:1]/6^3[8:1],46,,,
{8}2xh[4:1],,{16}E4,E5,{8}E6,,78,7/8>5[4:1],,
{8}6,,7,7,48,37,2^5[8:1]/6^1[8:1],,
{8}2b/6b,,4xb/8xb,,78,6,12,3,
{8}45,5/6h[4:1],,{16}8,7,{8}8,16,2^7[8:1]/5,,
{8}6,,5,{16}5,4,{8}6-1[8:1],6,5-2[8:1],5,
{8}8,7^4[8:1],,1,2w6[8:1],,,,
{8}48,,57,{16}3,4,2,,6,5,7,,2,1,
{8}2,8,17,{16}6,4,{8}5,34,2b/5b,,
{16}6xh[4:1],,8x,1x,2x,,4xh[4:1],,1x,8x,7x,,1xbh[4:1]/5xbh[4:1],,,,
{8},3xbh[4:1]/8xbh[4:1],,,{16}2,1,2,1,2-5[8:1]*-6[8:1],,,,
{1}2b<2[4:5]*>2[4:5],,
{6}2h[2:1],,,4h[2:1],,,
{6}E5h[2:1],,,,,,
{6}E3,E2,E1,7^4[4:1],,,
{6}E4,E3,E2,1^6[4:1],,,
{6}E6,E5,E4,3h[6:2],,,
{6}2h[1:2]/4,4,4,4h[6:9],,,
{1},
{24},3x/5x,{12}4x/6xh[12:32],,{4},,,
{1},
{1}5h[4:7],
{1}7xh[4:3],
{1}6<3[4:3],
{1}4p5[4:3],
{1}6^8q1^3[8:11],,
{4}4h[4:5],B5/E6,,B3/E3,
{8},,B5/E6,,,46,46,,
{8}5h[4:5],,B4/E5,,,,B6/E6,,,,
{8}B4/E5,,,35,3/5-8[8:1],,
{8}2bxh[8:3],,,1h[8:3],,,8h[8:3],,,
{8}7h[8:3],,,5x,,4x/6x,,
{16}3,7,3,7,3,7,3,7,
{16}2,6,2,6,2,6,2,6,
{16}1,5,1,5,1,5,1,5,
{16}2,4,2,4,3h[8:2],,,,
{24}7bx,2x/6x,1x/5x,,,,
{24}2bx/6bx,3x/7x,4x/8x,,,,
{16}7x^5[8:1],,5,,7-3[8:1],,1,,7,,2h[8:2],,,,1,8,
{16}5h[8:1]/7h[8:1],,,,24,,3,,4^1[8:1]/8^5[8:1],,,,4/8-4[8:1],,,,
{16}6,,6,,57,,8,,13,,1b/3b,,,,
{16}2,4,3,,24,,1^4[8:1]/5^8[8:1],,,,
{16}1p5[8:1]/5p1[8:1],,,,15,,,,
{16}3x/7x,,,,38,,2,1,2-6[8:1],,8,,2,,7,,
{16}8-3[8:1]*-5[8:1],,,,8b,,,,4,,
{16}4,,6,5,6,,7,,
{16}7x/8x,,8x/7x^4[8:2],,,,4^1[8:2],,
{16},,1,,,,8,,,,
{16}1/7h[8:2],,,,
{24}3bx,2x/6x,1x/5x,,,,
{24}2bx/6bx,3x/7x,4x/8x,,,,
{16}2x^5[8:1],,1,,2,,8,,
{16}5x/7x,,6,,45,,3,4,2,,
{16}15,,4,,35,,2^5[8:1]/6^1[8:1],,,,
{16}2x/6x,,,,8,,5,,
{16}46,,37,,28,,3,,
{16}16,,7,8,7,,56,,
{16}4^1[8:1]/8^5[8:1],,,,4q8[8:1]/8q4[8:1],,,,
{16}48,,,,2x/6x,,,,
{16}3,,18,,7^4[8:1],,3^8[8:1],,
{16}7-3[8:1],,3,,7x,,,,
{16}1b/5b,,,,2,4,2,4,3,,6,5,6,5,7,,
{16}1h[4:1],,,,,,
{16}2h[4:1]/8h[4:1],,,,,,
{16}3^6[8:1],1,3,1,3,,,,Cf/B4/B5/E5,,,,18,,,,
{16}2V46[4:1],,,,7,,,,
{16}1V75[4:1],,,,4,,,,
{16}3,,3,,24,,15,,
{16}8/6-1[8:1],,,,16,,2,,
{16}8/3-5[8:1]b,,,,7x/3x>6[16:5]b,,,,
{16}6b,,,,,,,,5/4h[4:1],,,,
{16}5,6,7,8,1/2^5[8:1],,,,
{16}8bx,,8x,7x,6x-1[8:1],,,,
{16}4bx,,4x,3x,2x-6[8:1]b,,,,
{16}1-5[8:1]/2-4[8:1],,,,2/1w5[8:1],,,,
{16}1,,,,37,,8,,
{16}12,,8,,57,,6,,
{16}24,,3,,4^1[8:1]/8^5[8:1],,,,
{16}8q4[8:1]/4q8[8:1],,,,4^1[8:1]/8^5[8:1],,,,4bx/8bx,,,,
{16}2b/6b,,,,3-5[8:1],,3,,
{16}7-3[8:1],,7,,1-5[8:1]*-6[8:1],,2,,1b,,,,,,E6,E5,E4,
E
Re:MASTER
- EXPERT譜面を追加しました。修正等ありましたらよろしくお願いします。 -- Sugar (2026-08-30 22:04:05)
最終更新:2026年09月18日 21:31