| アーティスト |
HyuN feat. ウォルピスカーター |
BASIC
ADVANCED
EXPERT
MASTER
(183){1},
{16}2/7,,1,8,2,7,3,6,4,5,4,,3b/6b,,,,
{8}2-7[8:1],,5,5h[4:1],,8,8>3[8:1],6,
7-2[8:1],,4,4h[4:1],,2,2,1/3,
{16}1/3,,2,,8,,7,,5/6,,3,4,3,,2,,
{8}2-8[8:1],,6,6,8,7,6/8,,
7-2[8:1],,1,1h[4:1],,4,4<7[8:1],2,
{16}2-5[8:1],,,,8,,8h[4:1],,,,5,7,4,6,3,5,
{8}2,,3/4,,3/4,,2,2q6[8:1],
,8,8-5[8:1],,4,4,6,6,
5/7,,5/7,,6/8,,7,7p3[8:1],
{16},,1,,1h[4:1],,,,4,2,4,2,4,,,,
{1}1bs5[4:5]/5b,
{4},,,6,
{1}6pp8[4:3]*qq4[4:3],
{4},,,7,
6<2[4:3],,,3,
3<7[4:3],,,8,
{1}8V64[4:3]*V24[4:3],
{16},,,,E4,E5,E6,E7,E8,E1,E2,E3,E4,,,,
{4}6,6,5/6,5/6,
5/7,5/7,5/8,5/8,
1/4,2/4,3h[4:1]/4h[4:1],,
{16}2/5,,2/5,,3,4,2,,8,,1/7,,1/7,,,,
6b,,6-1[8:1],,,,4,,,,2,1,2,1,2,,
3b,,3-8[8:1],,,,5,,,,7,8,7,8,7,,
{8}6>3[8:1],6,8,,2<7[8:1],2,4,,
5/6,5-2[8:1]/6-1[8:1],,5/6,,,1b/2b,,
3,3V15[8:3],,5b,,4,4,,
3,3pp8[8:3],,4b,,7,7,,
7-5[8:1],8,7,8,7-4[8:1],8,7,8,
7-3[8:1],8,7,8,4,2,1/5,,
2,2V85[8:3],,5b,,4,4,,
3,3-7[8:1],,4b,,6/8,6/8,,
{1}5h[4:7]/7V13V17[2:3],,
{8}5/7,5/7,,2/4,,5/6,,3/4,
{16},,1/8,,1/8,,,,3,4,3,4,3,4,3,,
{8}2/5,1,7/8,6,5/6,3,2-5[8:1]/4,,
2b/6b,8<5[8:1],,4/8V24[16:3],,4-7[8:1]/8,5,6h[4:1],
,8,8-3[8:1]*-4[8:1],,8b,,2,2,
3>6[4:1],4,5,5-1[8:1],,4,3,2,
,8,2v5[8:1]/7-2[8:1],,2/7,,4x/8x,,
2-5[8:1],1-6[8:1],2,1,,5,5,6,
7<4[8:1],8>3[8:1],7,8,,4,3,2/4,
2/4V61[8:3],,1,1>5[4:1],,5<1[4:1],,1,
,5,,3/7,3-1[8:1]/7-3[8:1],,3<1[16:5],,
Cf,,,2-6[8:1],,1-7[8:1]/2,,1/5,
,6,6-1[8:1]*-3[8:1],,6,,2,2,
3>6[4:1],4,5,5p8[16:3],,4,3,2,
,8,2v5[8:1]b/7-2[8:1]b,,2/7,,4x/8x,,
5/7,8,1,2/4,,1-4[8:1]/8-3[8:1],,1b/8b,
,1b-6[8:1]/8b-5[8:1],,1b/8b,,,3/4,2,
1/7,,8,8-6[8:1],,1b/8p3[4:1],,2b,
{16},,1,,1,,,,2h[16:3],,,4h[16:3],,,6,,
{8}5-1[8:3]/7-3[8:3],,,,,,,2qq5[8:7],
{1}2,
8hbx[1:2],
{4}E8,E7,E6,E5,
{2}B3/E4,B6/E6,
{4}A7h[4:5]/A8h[4:5]/D8h[4:5],,E3,E4,
{8}E5h[4:1],,,,,6,5,4,
3h[4:1],,4,4h[4:1],,2,2,,
1/8,1/8,,5/7,,3/4,3/4,,
{16}2b,5,2,5,1,6,1,6,8,7,8,7,1b/6x,,,,
{8}3,3>8[8:1],4,3,,7,7h[4:1],,
{16}6,5,4,3,7,6,5,4,8,7,6,5,4,3,2,1,
{8}7,7,8,6V82[4:1],,5,5,,
3,3,4,2h[4:1],,1,3/8,,
1/2,1-6[8:1]/2-6[8:1],,1/2,,8,8,,
5/7,5-2[8:1]/7-4[8:1],,5/7,,1,1,,
{16}2x,3,4,5,8x,7,6,5,1x,2,3,4,7x,6,5,4,
1x,2,3,4,5,6,7,8,E7,E6,E5,E4,E3,E2,E1,E8,
{8}5x,5x,,3/E5f,,Cf/7,,E1f/2,
,1/7,1>5[4:1]/7q6[4:1],,,,,,
{16}4/7,,4/7,,6,5,6,,3,,3,,2-6[8:1]/4,,,,
{8}2b/6b,8<7-5[8:1],,4/8>2-4[16:3],,4v7[8:1]/8,5,6h[4:1],
,8,8-2[8:1]*-4[8:1],,8b,,3,3,
2>7[4:1],1,8,8-3[8:1],,7,6,5,
,3/8,2v5[8:1]/7-2[8:1],,2/7,,4x/8x,,
2,1-6[8:1]/2-6[8:1],,1/2V48[4:1],,5,5,,
7,7-3[8:1]/8-3[8:1],,7/8,,4-8[8:1],2-6[8:1],4,
2,,1,1>5[4:1]b,,5<1[4:1]b,,1,
,5,,3/7,3>1[8:1]/7-3[8:1],,3V57-1[4:1],,
Cf,,,2q6[8:1],,1<7[8:1]/2,,1/5,
,6,6>3[8:1]*<1[8:1],,6,,2,2,
1>6[4:1],6,7,7-3[8:1],,8,1,2/4,
,6,5v2[8:1]b/7-2[8:1]b,,5/7,,3x/5x,,
3/5,4/6,5/7,4>1[8:1]/8<5[8:1],,4q8[8:1]b/8q4[8:1]b,,4>1[8:1]/8<5[8:1],
,4x/8x,,2b/6b,2b/6b,,3-7[8:1],3,
5-8[8:1],,1,1w5[8:1],,1,,3/7,
{16}3-8[8:1]/7-4[8:1],,,,3/7,,,,1/5,,2,6,3,7,4,8,
{1}5qq2[2:3],
1<6[2:1],
{24}2b/6b,3x/7x,4x/8x,1x/5x,
E
Re:MASTER
最終更新:2026年09月11日 21:11