アットウィキロゴ

Manifold Hypothesis

アーティスト cybermiso feat. tigerlily

BPM BASIC ADVANCED EXPERT MASTER Re:MASTER
174 3 7+ 11 13+ -

EXPERT MASTER Re:MASTER
譜面制作者 サファ太 Jack -

BASIC


ADVANCED


EXPERT


MASTER

(174){1},
{4}5bq7[2:7]/1bq3[2:7],15,{1},,,{4},,6,6h[8:3],{8},5h[8:3],,,4h[8:3],,,3h[8:3],{4},4,2>4[4:1],4<6[4:1],6<8[4:1],8>2[4:1],,4w8[4:1],4,,{8}17,1/7v6-4[8:3],,B3h[8:3],,,,,2,2v3-5[8:3],,B6h[8:3],,,,,8,8v7-5[8:3],,E3h[8:3],,,,,1,1v2-4[8:3],,E7h[8:3],,,,{16}5,5,{8}4x>1[8:1],,7<4[8:1],,2<7[8:1],,5>2[8:1],,8<5[8:1],,3>8[8:1],,6>3[8:1],,1,,28,28,37,56,34,12,78,16,{16}2,4,3,5,4,6,5,7,{8},12,7-4[8:1]/3v8[8:1],,
E7f,,2,12,{16}8,7,6,5,4,3,2b-6[8:1]*-5[8:1],,,,,,,,57,,4,5,4,5,3,4,3,4,{8}2-8[8:1],6-4[8:1],,,1-5[8:1],5-3-8[4:1],1,7,,6,7,8,15,2,34,6,8-4[8:1]/7-3[8:1],,78,,2,1>6[4:1],78,1,,8,8,{16}5,6,4,7,3,8,{8}12,,3/4-1[8:1],5,24,,7/8-3[8:1],1,68,,6,4,2-4[8:1],2-8[8:1],2-6[8:1],,,,4x/8x,,7,78,{16}5,4,3,2,1,8,7-4[8:1]/5b-1[8:1],,,,,,,,24,,5,4,5,4,6,5,6,5,{8}7-1[8:1],3-5[8:1],,,8-4[8:1],4-6-1[4:1],8,2b-5-3-8q6b[4:3],,,,,,,,,5b/7-3[8:1],,8,1,24,5,1/6v1[8:1],2-5[8:1],,,,{16}7,8,6,1,5,2,{8}34,,5v8[8:1]/6,4,57,,1<6[8:1]/2,8,13,,3,5,7v5[8:1],7v1[8:1],7-3[8:1],,,,
1b/5b,,2-4[16:1]/8,{16},2,,,6,6,5-1[16:1],,,5,,,8,8,2-4[16:1],,,2,,,6,6,5,,4,4,5,,,,1/7-5[16:1],,,7,,,3,3,4<8[8:1],,,4,,,1,,3xh[8:1],,5,,4,,4,,6-1[8:1]/2-5[8:1],,,,2b/6b,,,,3/7-5[16:1],,,7,,,3,3,4-8[16:1],,,4,,,1,1,7-5[16:1],,,7,,,3,3,4,,5,5,4,,,,2-4[16:1]/8,,,2,,,6,6,5-3>1[8:1],,,5,{8},8,7,6,4/5pp4[8:3],3,2,,1bh[8:3],,,3,2/4h[4:1],,3,2h[4:1]/4,,E4,B6h[4:1],,1,1,8q5[8:1]/2-5[8:1],,28,,,6,5h[4:1]/7,,6,5/7h[4:1],,E6,E5,E4,8,8,17,,2x/6x,{16}3,4,3,,5,4,5,,2,4,3,,6,5,6,,4,5,4,,7,5,6,,3,2,4,,6,5,7-4[8:1],,7,,3-8[8:1],,3,,5-1[8:1],,5,,2,,2,,78,6,5,4,3,2,1,8,37,,4,4,6<4[2:5],,35,,
{1}Cf,,{8},,E5,,,E6,,,E7,,,E8,,,E1,,3h[1:2],,E5,,,E4,,,E3,,,E2,,,E1,,7h[1:2],,E7,,,E6,,,E5,,,E4,,,E3,,1,1,1,1,E3,1,1,1,7,7,7,7,E6,7,7,7,3,3,3,3,E5,3,3,3,5,5,5,5,E4,5,5,5,2-8[8:1],,4,5,6,3,4,5,2,3,4,1>4[8:1],,5,6,7,7-1[8:1],,5,4,3,6,5,4,{16}2,1,2,1,2,1,2,1,{8}3/8<5[8:1],4,4,3,1b/2b,3h[2:1]/8h[2:1],,,,,,,7b/8b,1h[2:1]/6h[2:1],,,,,,,5b/6b,4h[2:1]/8h[2:1],,,,,,,3b/4b,1h[4:1]/5,,8v3V57[4:1],,,,,2<7[4:1],,7<4[4:1],,4>1[4:1],,1<5[4:1],,5>1[4:1],,1V75[4:1],,5V31[4:1],,1,,7<4[8:1],7,3>8[8:1],3,7-3[8:1],7,1,1,{16}2,4,3,5,4,6,5,7,2,1,3,8,4,7,5,6,
{4}2-6b[8:1],7bx-1-6-2-5-3[8:7]/E2/E3/B2f,,,,,{16}1h[16:3],,,2h[16:3],,,3,,5<3[8:3]/6,,7,,8,,,,,,7,,6,,45,,3,5,4,6,3,5,4,6,3,4,6,5,3,5,4,6,{8}1xh[8:1]/5xh[8:1],,2b/A4/E4f/B4,,7,7<4[8:1],8,7,2,{16}3,4,3,,5,,46,,7,8,7,,1,,28,,6,5,6,,4,,35,,2,1,{8}2V46p8[2:1],8,,,E8,E7,,E5,B3,A2,8bV64[8:1]/7b-4[8:1],,78,,1,{16}6,5,6,,28,,6,5,6,,37,,6,5,6,,48,,56,,7,,2v3-5[8:1]/1-5[8:1],,,,1b/2b,,,,8,,3,4,3,,17,,3,4,3,,26,,3,4,{8}3,15,7V53[8:1]/8,3-6-1b[4:1],,,A2/E2f/B2,,{12},8h[12:3],,,5h[6:1],,{16}6,,6,5,,5,7,,17,,3,4,,4,2,,{4}2-5[8:1]/8,2-7[8:1]/7,2/6-1[8:1],3/6p3[2:1],2h[8:3],,{8},12,34,5b/6bh[4:1],
,{16}8,1,2,3,4h[8:1],,8,7,6,5,4h[8:1],,8,1,2,3,4h[8:1],,8,7,6,5,4h[8:1],,8-5b[8:1],1,2,3,4bxh[4:1],,,,6,7,8,1,2h[8:1],,6,5,4,3,2x/8xV26-4[8:3],,2xh[2:1]/8x,,,,,,,,,,,,34,,12,,7bh[4:1]/8b,,,,5,4,3,2,1h[8:1],,5,6,7,8,1h[8:1],,5,4,3,2,1h[8:1],,5,4,3,2,1h[8:1],,5,4,3,2,1x/5x-7v4V28-3<1[1:1],,{1}1bxh[4:1]/5bx,{8}A2/E2f/E3/B2,,,,34,2>5[8:1]/5,,26,8w4b[8:1],,
Cf,,,35,26,,7,7<4[8:1],8,7,2-6[8:1],1,28,,5,5>2[8:1],6,5,8v5[8:1],7<3[8:1],8,7,,12,38,,56,{16}7,8,{8}7,16,2v5[8:1],2,7-1[8:1],7,4-8b[8:1],4-2b[8:1],,,7v4[8:1],7,2-8[8:1],2,5-1b[8:1],5-7b[8:1],,,2,12,34,56,78,12,78,56,{16}3,4,2,5,1,6,8,7,2,1,3,8,4>5[1:1],7,5,6,{1}4b/Cf,,,,,,,
E

Re:MASTER


名前:
コメント:

タグ:

+ タグ編集
  • タグ:
最終更新:2026年09月17日 00:10