アットウィキロゴ

Inverted World

アーティスト ARForest

BPM BASIC ADVANCED EXPERT MASTER Re:MASTER
180 4 7 11+ 14 -

EXPERT MASTER Re:MASTER
譜面制作者 Luxizhel けんけん法師 -

BASIC


ADVANCED


EXPERT


MASTER

(180)
{1}3p5[4:5]/7p1[4:5],,2^5p8[4:5]/6^1p4[4:5],,2-6-2[8:5],7-3-7[8:5],4V28V24[8:5],7V53V57[8:5],
{8}1,,2,24,,3,35,,4,46,,5,57,,57,,56,,7,57,,6,46,,3,35,,6,5,4,3,2,
24,,2,2/4h[4:1],,3,3/5h[4:1],,4,4/6h[4:1],,5,57,,56,,
57,,7,5h[4:1]/7,,6,4h[4:1]/6h[4:1],,,{16}3,5,3,5,3,5,2,4,1,3,{4}8^3[8:1]b,

{48}8b/A4f,D5,A5,D6,A6,D7,{8}A7,,,7,1,7,8h[4:1],7,,7,,7,6,7,5h[4:1],
7,,7,,7,5,7,6,7,8,{4}78,67,5s1[4:1]*z1[4:1]/7,
{2},{8}2,8,12,1h[4:1],2,,2,,2,3,24,4h[4:1],2,,2,,24,3,23,,34,2,18,7,56,56,47,,

{8}4h[4:1],,,{16}6,7,{2}4h[4:1]/8p3[4:1],{8}4h[4:1],,,{16}2,1,{2}4h[4:1]/8q6[4:1],
{8}4h[4:1],,,{16}7,8,{4}4h[4:1]/1-5[8:1],1,{8}46,4,35,3,24,2,1/3p6[4:1]*q8[4:1],,
{2},1p7[2:1]/5h[4:1],5h[4:1],{4}5/8^3[8:1],5b,
{8}A7/B7,A6,A5,A4/B4,A3,A2,A1/B1,A8,{4}A6/A7/B6/B7/E7f,A3/A2/B3/B2/E3f,A4/A5/B4/B5/E5f,,

38,{16}2,1,2,,8,,2,1,2,,13,,13,,2,8,,8,1,,1p8[4:1],7,,7,{4}1,
7,{16}7,8,7,,1,,7,8,7,,86,,86,,7,1,,1,8,,8,2h[8:3],,,1hx[16:1],,1hx[16:1],,
{4}38,{16}3,1,3,,7,,3,1,3,,28,,28,,3,1,,1,2,,7p5[4:1],8,,8,{4}7,
1,{16}6,8,6,,2,,6,8,6,,71,,71,,6,8,,8,7,,2,1,3,,2h[16:1]/4h[16:1],,2h[16:1]/4h[16:1],,

{4}1b/5b,{16}3,4,3,,5,,3,4,3,,12,,12,,2,1,,7,8,,2,1,,7-2-4[16:3],{4}8,
1b,{16}6,5,6,,4,,6,5,6,,87,,87,,7,8,,2,1,,7,8,,7,6h[16:1]/8h[16:1],,6h[16:1]/8h[16:1],,
{4}1b/5b,{16}2,4,2,,6,,2,4,2,,25,,25,,3,4,,2,1,,7,8,,6V48[16:3],{4}5,
3b,{16}7,5,7,,3,,7,5,7,,74,,74,,6,5,,2,1,,3,4,,8,1hb[16:1]/7hb[16:1],,3hb[16:1]/5hb[16:1],,

{1}2b<3pp1[2:7]/6b,,,,
{16}E7,,,B6,,,B5,,,E5,,,A4,,,,E3,,,B2,,,B1,,,E1,,,A8,,,,
A6,,,E7,,,B7,,,B8,,,E1hf[4:3],,,,{1}E5h[2:1],

{16}34,,,3,4,,3,,4,3,,,45,,,,65,,,6,5,,6,,5,6,,,53,,,,
24,,,2,4,,2,,4,2,,,35,,,,75,,,7,5,,7,,5,7h[16:3],,,1b,,,,
{8}24,2,35,3,46,4,57,5,68,6,17,7,28,8,13,1,
4h[16:1]/8h[16:1],4h[16:1]/8h[16:1],3h[16:1]/7h[16:1],3h[16:1]/7h[16:1],
{32}E3,E2,E1,E8,E7,E6,E5,E4,D3,D2,D1,D8,D7,D6,D5,D4,{4}A2/B2/B3/D3f/E3/C,,7-5[8:1],7/3-8[8:1],

{16}3b-6[8:1]/4b,,,5,{8}3V15[4:1],7,3,6,6-1[8:1],7,
{16}6-3[8:1]/5,,,4,{8}6V84[4:1],2,6,3,3-8[8:1],,
{16}3-6[8:1]/4,,,5,{8}3V15[4:1],7,3,7,6,6,
{16}5h[8:1]/6h[8:1],,,4h[8:1]/7h[8:1],,,38,,1b/2b,,7b/8b,,3b/6b^1[8:1],,,,
6^3[8:1]/5,,,4,{8}6-1v4[4:1],2,6,3,3^8[8:1],2,
{16}3^6[8:1]/4,,,5,{8}3-8v5[4:1],7,3,7,6,7,
{16}7-3[16:3],,,3V15[16:7],,,{8}4,4-8[8:1],4,,,
{16}1,6,1,5,1,4,1,3,{32}1,2,3,4,5,6,7,8,{4}1b/5b,

{16}26,,3,4,,7,8,,2,1,2,8,1,8,2,,73,,6,5,,2,1,,7,8,7,1,8,1,7,,
46,,7,5,6,,35,,4,6,3,7,2-4[8:1],8,{8}1-5[8:1],2-6[8:1],1-7[8:1],2^5[8:1]b,1,{4}2,4b/8b,
{16}3b,4,3,5,4,5,2b,4,2,6,4,6,4b,7,3,8,2b,1,2,8,1,8,3b,1,3,7,1,7,1b,8,2,6,
3,4,2,5,8,7,1,6,2,5,4,7,1,6,3,8,{32}3b,4,5,6,7,8,1,2,3,4,5,6,7,8,1,2,
3b/8b,7,6,5,4,3,2,1,8-4[8:1],7,6,5,4,3,2,1,

{48}4V68V24[4:13]b*>4[4:13]/8b,Cf,,{16},{8},{4},{2},{1},,,
{8}5,,2h[8:3],6,,7h[8:3],3,,4h[8:3],8,,1h[8:3],5,,5,1,
15,,7h[8:3],3,,2h[8:3],6,,5h[8:3],1,,8h[4:1],4,,4/8x^3[8:1]b,,

{48}8b/A4f,D5,A5,D6,A6,D7,{8}A7,,,6,6,6,{2}4h[4:1]/6h[4:1],{16}7,8,{8}13,3,3,
{2}1h[4:1]/3h[4:1],{16}4,5,{8}68,8,8,6/8<1[8:5],,E8,E7,E6,E4,E3,E2,,
7h[4:1]/8,,,{16}1,2,{8}34,4,4,{2}3h[4:1]/4h[4:1],{16}5,6,{8}78,8,1/6h[4:1],,
8,8,17,17,26,{16}3,7,4,8,5,1,4,8,3,7,2,6,1,5,8,4,8,4,{24}15,26,37,48,51,62,{1},,,,E

Re:MASTER


  • MASTER譜面を追加しました。修正等ありましたらよろしくお願いします。 -- けもがみ (2026-08-21 15:58:58)
名前:
コメント:

タグ:

+ タグ編集
  • タグ:
最終更新:2026年08月22日 21:51