BASIC
ADVANCED
EXPERT
(172)
{2}4h[4:1]/7h[4:1],2h[4:1]/5h[4:1],4h[4:1]/6h[4:1],3h[4:1]/5h[4:1],6p4[8:5],,{16},,3x,,,2x,,,1x,,,8x,,,7bx,,{4},,Cf/B5/B4,,7xh[4:1],8x,2xxh[4:1],1x,6h[4:1],5,3,2h[4:1]/4h[4:1],,1/2,1/2,3/4,5/6,7h[4:1]/8h[4:1],,8x/1x,2h[4:1],1,7h[4:1],8,3h[4:1],4,6,6,5/7,4/6,3/5,2h[4:3]/4<8[4:2],,,,,
{8}1x/2x,,3x/4x,,1x/2x,,3h[4:1],,4,,6,6,5,,3,3,4,,6,6,5,,2h[4:1],,4h[4:1],,5h[4:1],,7bx,,,,8x/7x,,6x/5x,,8x/7x,,6,6,4,,3-6[4:1],,,,,,7,7,5,,3h[4:1],,1h[4:1],,8h[4:1],,6h[4:1],,4,,5b,,{4}6,5/7,3,2/4,7,5-2[4:1]/6-1[4:1],,,3/4,1,5/6,8,3/4,3-8[4:1]/4-7[4:1],,,5x/6x,5x/7x,4x/3x/,4x/2x,5x/6x,5x>2[4:1]/6x<1[4:1],,,3h[4:1]/4h[4:1],,5h[4:1]/6h[4:1],,3/4,6/5-2[4:1]*-8[4:1],,,7/1-5[4:1],,6,6,3/5-1[4:1],,2,2,7/1v4[4:1],,6,6,3/5v8[4:1],,2h[2:1],,{8}1bx,1bx,,,3b/4b,,,,5b/6b,5b/6b,,,7b/8b,,,,7h[4:1],,5h[4:1],,4h[4:1],,2h[4:1],,8,,3b/7b,,3b/7b,,,,
{4}5/6,2x/8x,3/4,1x/7x,5^2[4:1]/6^1[4:1],,,1x/2x,2/8,1/2,3/4,5/6,4/7,{8}6,6,5,,5^2[4:1]/6^1[4:1],,,,,,1/2,,3v6[4:1]/8v5[4:1],,,,,,4/5,,3,3,4,,{4}1b/8b,5/6,1b/8b,3/5,4/6,3b/7b,3b/7b,2h[4:1],4h[4:1],5h[4:1],7,4/8x,4/8x,4/8x,,7h[4:1],5h[4:1],4h[4:1],2,1x/5,1x/5,1x/5,2/4,5/6,2x/8x,3/4,7x/1x,5^2[4:1]/6^1[4:1],,,1/2,1-4[4:1]/8-5[4:1],,,,{16},,3x/5x,,,4x/6x,,,3x/5x,,,4x/6x,,,3x/5x,,,,,,{8}4,,3,3,4,,2h[4:1]/1-6[4:1],,,,,,1b,,
{4}2/4,2/4,5/7,5/7,7/8,7/8,3/4,3/4,1/2,1/2,5/6,5/6,7/8,8^3[4:1]/7^4[4:1],,,2h[4:1]/5h[4:1],,4h[4:1]/7h[4:1],,6h[4:1]/8h[4:1],,1h[4:1]/3h[4:1],,{8}2,2,1/3,,7,7,6/8,,1,,2/5,,E4f/B4/B3,,,,
{4}5/6,2x/8x,3/4,7x/1x,5^2[4:1]/6^1[4:1],,,1/2,{8}7,7,8,,2,2,1,,1/8,,7,7,5,,5^2[4:1]/6^1[4:1],,,,,,1/2,,3v6[4:1]/8v5[4:1],,,,,,4/5,,3,3,4,,1b/8b,,5/6,,1b/8b,,6,6,4,,3b/7b,,3b/7b,,{4}2h[4:1],4h[4:1],5h[4:1],7,4/8x,4/8x,4h[4:1]/8xh[4:1],,7h[4:1],5h[4:1],4h[4:1],2,1x/5,1x/5,1x/5,2/4,5/6,2x/8x,3/4,1x/7x,5^2[4:1]/6^1[4:1],,,1/2,1-4[4:1]/8-5[4:1],,,,{16},,1x/7x,,,2x/8x,,,1x/7x,,,2x/8x,,,1x/7x,,,,,,{4}E7,C,E3,2h[4:1]/1-6[4:1],,,1b,
{8}2/4,,2/4,,1,1,8,,5/7,,5/7,,8,8,1,,2/4,,3,,5/7,,6,,4/3,,2,,5/6,,7,,5/7,,5/7,,8,8,1,,2/4,,2/4,,8,8,1,,5/7,,7/8,,2/4,,2^5[4:1]/1^6[4:1],,,,,,8,,1bx/7bx,1bx/7bx
E
MASTER
(172)
{8}3-1[8:1],,4,,6-8[8:1],,5,,1,1-5[16:1],,8,,7x/5x,,6,6^1[4:1],5,6x,,3^8[4:1],4,3x,,7,{16}7h[16:3],,,5h[16:3],,,4h[16:3],,,2x,,,3qq4[8:3]/5pp4[8:3],,{4},,,2x/6x,{16}3/5,,4,,6,5,6,,5/7,,8,,5/7,,8<4[4:1],,,,{8}3,3,2-8[8:1],2,4,5,6h[4:1],,8,1h[8:1]/7h[8:1],,2h[8:1]/8h[8:1],,,3,4/6,7,3/5,1s5[4:1],,7,7,,{16}4/6,,5,,3,4,3,,2/4,,1,,2/4,,1>5[4:1],,,,{8}6,6,7-1[8:1],7,4,4,,1b/2,,3b/4,,5/6b,,7b/8<1[2:1],,Cf,,,,,,
{4}2-7[16:1],6b-3[16:1],2b-7[16:1],5b,6x/8x,{16}7h[16:3],,,6h[16:3],,,5,,,,{8}3/4,3/4,,{16}2h[16:3],,,3h[16:3],,,4,,,,{8}5/6,5/6,,{16}7h[16:3],,,6h[16:3],,,5,,,,{8}4/7,4^1[8:1]/7,,6b^1[8:1],,5b-1[8:1],,8b,,2/8,,{16}7h[16:3],,,5h[16:3],,,3,,,,{8}3/4,3/4,,{16}2h[16:3],,,4h[16:3],,,6,,,,{8}5/7,5V37-1[8:3]/7,,8b,,,5,5,,1/6,,7/8,7,7/8,7,7/6,7,7/6,7,7/8,1/6,1/6,,A5/B5f/A7/B7/C/B3/A3,,1x/8x,,1/2,2,1/2,2,2/3,2,2/3,2,2/4,2/4,2/4q8[16:1],,E3/B3f/E4,,1/7,,6/5,6,6/5,6,6/7,6,6/7,6,6/8,7/1,2/8h[4:1],,{32}E2,E1,E8,E7,E6,E5,E4,,,,,,{8}2x,2^5[8:1],,1,8,7^2[8:1],,6,5,5,,3v8[16:1]/7-4[16:1],,3x/7x,,1bx/5bx,,6<2v4[4:3],,,,,,,1,1>8[4:3],,,,,,,1,1-5-8-4[4:5],,,,,,,1,1>4[4:1],,,,,,3/5,,2/4,2h[8:1]/4h[8:1],,,1h[4:1]/2h[4:1],,,,8/7,8h[8:1]/7h[8:1],,,7h[4:1]/5h[4:1],,,,5/7,,2/4,,6/8,,3/1,,8,7,6/5,,4bh[4:1]/8bh[4:1],,,,
{8}1^7[8:1]/5^3[8:1],,1bx/5b,,4-1[8:1]*-7[8:1],,4b,,4/6,3-8[8:1]/7-3[8:1],,3b/7b,,2x,2x>6[4:1],,2/8,,8V64[4:1],,2/8,,8pp3[2:1]*qq4[2:1],,,,,,,,3/4,,2^7[16:1],,6^3[16:1],6,2V48[4:1],2,5,,7b,,6,5,4/3,2,1/5,,2/4-8[8:1],,3/4,,7/5-1[8:1],,5/6,,8xV24[8:1],7,6-1[8:1]b,,5/6,,4b/8b,,1/2,3,4/8,,4/8,7,6/5-3[8:1],,8h[2:1]/5-2[8:1],,5-1[8:1],,5,,2x/6x,,8/7,6,5/1,,5/1,2,3/4-6[8:1],,2h[2:1]/4-7[8:1],,4-8[8:1],,3/4,,4/8x,,1^7[8:1]/5^3[8:1],,1b/5b,,4-1[8:1]*-7[8:1],,4b,,5/6,3-8[8:1]/7-3[8:1],,3b/7b,,1/5,2/4,4/5,5/7,1-4[4:1]/8-5[4:1],,,,,,,,{16}2/B5,,,8/E4,,,1/E6,,,7/B4,,,2/E5f,,,,,,5x/6x,,,,7x/8x,,,,1x/2x,,,,{12}2,8,1,1-6[16:1],,,1bh[4:1],,,,,,
{4}6<3[4:1],3>6[4:1],6,3,2-5[8:1],1-6[8:1],2-5[8:1],1,4h[8:1]/7h[8:1],6h[8:1]/5h[8:1],2h[8:1]/5h[8:1],3V15[4:1]/4-8-6[4:1],,,5/6,8/7,{8}1b/6,1h[8:1]/6bh[8:1],,,8b/7b,,,,8b/3,8h[8:1]/3bh[8:1],,,1b/2b,,,,2qq6[2:1],,,,,,5,,8,,1-5[8:1]/7-3[8:1],,1x/7x,,
{8}2q6[8:1]/6q2[8:1],,2x^7[8:1]/6x^3[8:1],,2bx/6bx,,4x-1[8:1]*-7[8:1],,4b,,4/6,3-8[8:1]/7-3[8:1],,3b/7b,,2x,2x>6[4:1],,2/8,,8V64[4:1],,2/8,,8pp3[2:1]*qq4[2:1],,,,,,,,3/4,,5V72[4:1]b,,2V85[4:1],,5p7[4:1]*>7[4:1],,,,,,5q2[8:1]/6^1[8:1],,,,3/4,,2/4-8[8:1],3,4,,7/5-1[8:1],6,5,,8-2[8:1]/7-3[8:1],,8-4[8:1]/7-5[8:1],,8/7,,A3/D4/A4/A6/D6f/A5,,1/2,3,4/8,,4/8,7,6/5-3[8:1],,8h[2:1]/5-7[8:1],,5-1[8:1],,5,,2x/6x,,8/7,6,5/1,,5/1,2,3/4-6[8:1]b,,1h[2:1]/4-2[8:1]b,,4q8[8:1]b,,4,,2q6[8:1]/6q2[8:1],,2x^7[8:1]/6x^3[8:1],,2bx/6bx,,4-1[8:1]*-7[8:1],,4b,,4/6,3-8[8:1]/7-3[8:1],,3b/7b,,1x/5x,,2/4,4/5,5/7,1-4[4:1]/8-5[4:1],,,,,,,{16}2/B5,,,8/E4,,,1/E6,,,7/B4,,,2/E5f,,,,,,7x/8x,,,,8x/1x,,,,1x/2x,,,,{16}2/4,2/4,,1,1-6[8:1],,2x/8,,1bh[4:1],,,,5x,,,,
{16}4/6,,5,,3,4,3,,2/4,,1,,2/4,,1>5[4:1],,,,{8}6,6,7-1[8:1],7,5,4,3h[4:1],,1,2h[8:1]/8h[8:1],,5h[8:1]/7h[8:1],,,6,6,8,2,4-8[8:1],,7,7,,{16}1/6,,2,,3,4,3,,5/6,,7,,5/6,,8-3[8:1],,,,{8}4-1[8:1],4,5-8[8:1],5,2,2,,1h[8:1]/3h[8:1],,8h[8:1]/6h[8:1],,2h[8:1]/4h[8:1],,5/7w3[4:1],,,,,,1xv2-4[4:1]b/5v6-8[4:1],1/5,,Cf,
E
Re:MASTER
最終更新:2026年09月08日 21:03