BASIC
ADVANCED
EXPERT
MASTER
(138){2}4bhx[4:1]/5-1[4:1],3h[4:1],1h[4:1]/2h[4:1],1h[4:1]/2h[4:1],1-5[4:1]/2h[4:1],3h[4:1],{4}2/4,4/5,5/7,4-8[4:1]/8,7,7,6/8,6/8-4[4:1],5bx,5,3/5,3/5q1[4:1],2,2,1/2,1/2h[4:1],3h[4:1],4h[4:1],{8}5,6,7>3[4:1],,3<7[4:1],,,,2-7[8:1]b,,,,
{2}B5/B6/E6,E5,E4h[2:1],,E3,E4,{4}E5h[2:1],,,E4/E6,{4}6,5x/6h[2:1],E5,E6,6,5x/6h[2:1],E5,E6,6,5x,3/4,3/4q1[4:1],2,2,1/2,2/3,3,4x/3h[2:1],E5,E4,3,4x/3h[2:1],E5,E4,3,2h[4:1]/4x,3,{8}3,2/4,2h[2:1]/4h[2:1],,,,,,2,2,4h[4:1],,,3/5,,6V82[4:1],,2-6[4:1],,3,,4,,7,7h[1:1],,E7/B6,,E8/B8,,E5/B4,,E1/B8,,6,6,1,1,2/8,,3,3,1/2v8[4:1],,7,7<4[4:1],,1,,1h[4:1],,E3,E4,E5h[4:1],,
1,1<6[4:1],,6>3[4:1],,,,1h[4:1],,2V47[2:1],,8,,8,,8,,1/7,,{2}E3/B4,E7/B5,{4}4h[2:1],5h[4:1],,4/5,
{8}5b-1[8:1]/7b-5[8:1],5/7,,,4x-7[8:1]/2x-5[8:1],4/2,,,7x-5[8:1]/8x-4[8:1],7/8,,,1x-4[8:1]/2x-5[8:1],1/2,,,5x-8[8:1]/6x-1[8:1],5/6,,,2x/4x,,3<6[8:1],,3/7-3[8:1],,1-6[8:1]/7,,1/5,,3x/7x,,2b<8[8:1],2,6-4[8:1],,3p7[8:1],3,6<1[8:1],,2v5[8:1]b,2,7-4[8:1],,1<6[8:1]b,1,5w1[8:1],,A5f/D5/D6,,3-8[8:1]/7-4[8:1],,3/7,,1/5,,A1/A2/B1/B2/E2/D2f,,A8/A7/B8/B7/E8/D8f,,4b/5b,3/6,3/6<3>6[2:1],,E5f,,,,4,4,3h[4:1]/5-1[8:1],,,,,,2-7[8:1]b,,2b,,
{8}6<2[4:1],,2,3,4>8[4:1],,8,7,6-1[8:1],6,5-2[8:1],5,8,,7/8,1/6,2h[4:1]/5,,1,3/8,4/7,5,4/6,3,2-4[8:1],2,1-5[8:1],1,2,,7x-4[8:1]/8x-3[8:1],,7b/8b,,2-7[8:1],2,5h[4:1],,6>3[8:1],6,1-6[8:1],1,2-5[8:1],2,8,,7/8,1/8,2h[4:1],,1,1,1/2,3,4/5,6,7>1[8:1],7,2w6[4:1],2,,,,,
{16}4bx/8bx,,,,5/7,,6,5,6,5,6,,3/4,,2x,,1bx,,1bx,,2/4,,3,4,3,4,3,,6,5,6,,2-7[8:1]/7-2[8:1],,,,,,,,4,5,4,,3/6,,3/6,,{12}7,5,6,2,4,3,5-8[8:1],,,{8}4,2b,{16}2h[16:3],,,3h[16:3],,,4,,4/5,,6,5,6,5,7,,4bx/8bx,,4bx/8bx,,5/7,,6,5,6,,3,4,3,4,2,,2h[16:3],,,3h[16:3],,,4,,4/5,,6,5,6,5,7,6,{8}7h[2:1],,,,8bw4[8:1],2/6,,,
{2}E2h[2:1],B3/E4,E3h[2:1],B4/B5,E4h[2:1],B6/E6,{4}7h[4:1],6h[4:1],5,4/5,{8}3,3h[8:3],,,2,2h[8:3],,,1,1h[8:3],,,8,8h[8:3],,,7,7h[8:3],,,6,6-2-8[4:1],,,{1}4bhx[2:3],{2},{4},2-5[8:1]/6-1[8:1],2b/6b,7-4[8:1]/3-8[8:1],7/3,1-4[8:1]/5-8[8:1],1/5,1-6[8:1]/5-2[8:1],1/5,1>4[8:1]/5<8[8:1],1/5,3>8[8:1]/7<4[8:1],3/7,1-5[8:1],1/6-1[8:1],4w8[8:1]/6,4b,2/6,{8}3b<5[8:1],3,7-1[8:1],,2q6[8:1],2,7<4[8:1],,3v8[8:1]b,3,6-1[8:1],,4<7[8:1]b,4,1w5[8:1],,A1f/D2/D1,,3/7,2/6,1-5[8:1]/5-8[8:1],,1/5,,{16}7h[16:3],,,5,6pp4[8:3]b,,4,,{2}E5f,
{8}1b<6[8:1],2,3,3,4>1[8:1],5,6,6,7<4[8:1],8,1,1,2<7[8:1],3,4,4,5/6-1[8:1],7,4,4,4/3-8[8:1],2,5,6,7-3[8:1],8,1-5[8:1],2,8b,8,3>8[8:1]/7<4[8:1],,3b/7b,,B6/B5/E5/E6/A6/A5/D6,,B2/B1/E3/E2/A2/D3/D2,,7-4[8:1]/8-4[8:1],6,7b/8b,,2-6[8:1]/3-5[8:1],1,2b/3b,,7/8,1/6,2/5q3[4:1],,3p5[4:1],,5q3[4:1]b,,3>5[4:1]b,,E5f,,C,,1,1/2,1q5[8:1]/2>4[8:1],,1b/2b,,7<5[8:1]/8-5[8:1],,7/8>3[8:1]*q4[8:1],,,,{4}E3/Ch[2:1],,2w6[8:1]b,2b,E1f/E2/E8/A7/A2/B7/B8/B1/B2,E
Re:MASTER
- MASTER譜面を追加しました。修正等ありましたらよろしくお願いします。 -- Sugar (2026-09-04 23:05:31)
最終更新:2026年09月04日 23:05