アットウィキロゴ

電脳眠眠猫

アーティスト 桃寝ちのい

BPM BASIC ADVANCED EXPERT MASTER Re:MASTER
160 2 6 10 13 -

EXPERT MASTER Re:MASTER
譜面制作者 ブレーンバスター じゃこレモン -

BASIC


ADVANCED


EXPERT


MASTER

(160)
{1},
{8}1s5[4:1],,,,6,6,4/7,,3x-8[8:1],,4,5,1-4[8:1]/6-1[8:1],,,,
{8}8,7,1-4[8:1]/6-1[8:1],,,,3/7,,1/5<1[4:1],,2,3,4>8[4:1],,8,,
{4}7-2[4:1],2v4[4:1],4,,6x-1[8:1],{8}5,4,3-8[8:1]/8-5[8:1],,,,
{4}2-4[8:1]/6-8[8:1],2-8[8:1]/6-4[8:1],,,1/8,{8}2,3-7[8:1],4-8[8:1],,,,
{4}2<7[4:1],7>2[4:1],4-8[8:1],4b,1x/2x,{8}3/4,3,1/2,,3/4,3,
{8}1/2,8,7/8,6,B4/B5/E5,,B1/B2/E2,,7x/8x,,5/6,6,7/8,,5/6,6,
{8}7/8,1,1/2,3,3/4,5b,8b,,1x/2x,,3/4,3,1/2,,3/4,3,
{8}1/2,8,7/8,6,B4/B5/E5,,B1/B2/E2,,7x/8x,,5/6,6,7/8,,5/6,6,
{16}7/8,,6,5,,3,4,,6,5,6,,{8}4b/7b,,3h[1:1],,2,2,2,,4,,
{8}6h[4:3],,7,7,7,,5w1[2:1]b,{1},{8}4,
{8}4,3,2,1>5[4:1],,7x,7x,,6h[1:1],,7,7,7,,5,,
{8}3,3h[8:7],,4,4,,2,1,8-2-6-4[2:1],,{4}4,3,1xpp2[4:1],
{4}1qq8[4:1],1,3,4b/5b,{16}6x,5,6,5,6,,{8}7,8,1,2/8,3xp8[8:3],
{8},8,8<4[4:1],,4,,,,{16}3,4,3,4,3,,{8}2,1,8,1/7,6,
{16}6hx[4:3],,E8,B7,B6,,E2,B2,B3,,,,1,,,,7x,8,7,8,7,,{8}6,5,4,3/5,2x-7[8:1],
{8},7,6-3[8:1],,3,2,1-3[8:1]*-4[8:1],,1-6[8:1]*-7[8:1],,1,,4,3,2,1-4[8:3]/4V61[8:3]b,
{4},,,,3x-8[8:1],{8}3/4,5,1-4[8:1]/6-1[8:1],,1/6,,
{8}8,7,1-4[8:1]/6-1[8:1],,{4}1/6,3/7,1/5<1[4:1],{8}2/5,3,4>8[4:1],,4/8,,
{8}7-2[4:1],,2v4[4:1],,4,3,2,,6x-1[8:1],,5/6,4,3-8[8:1]/8-5[8:1],,3/8,,
{4}2-4[8:1]/6-8[8:1],2-8[8:1]/6-4[8:1],2/6,,1/8,{8}2,3-7[8:1],4-8[8:1],3,4,,
{4}2<7[4:1],7>2[4:1],4-8[8:1],4b,1x/2x,{8}3/4,3,1/2,,3/4,3,
{8}1/2,8,7-2[8:1],5,7/4-1[8:1],,4/8,8,7x,,5/6,6,7/8,,5/6,6,
{8}7/8,1,2/4,5,6/4h[4:1],7b,8b,,1x/2x,,3/4,3,1/2,,3/4,3,
{8}1/2,8,7-2[8:1],5,7/4-1[8:1],,4/8,8,7x,,5/6,6,7/8,,5/6,6,
{16}7/8,,6,5,,3,4,,6,5,6,,{4}4b/7b,3<6[4:1],6<1[4:1],1>4[4:1],4,
{8}7-4[8:1],7-2[8:1],7-3[8:1],,,1x,1x,,{4}6>3[4:1],3>8[4:1],8<5[4:1],5,
{8}2-5[8:1],2-7[8:1],2-6[8:1],,,8x,8x,,{4}3<6[4:1],6<1[4:1],1>4[4:1],4,
{8}7-4[8:1],7-2[8:1],7-3[8:1],,,1x,1x,,{4}6>3[4:1],3>8[4:1],8<5[4:1],5,
{16}4,3,2,1,8,,5,6,7,8,1,,{4}4b/8b,6q3[4:1],3q8[4:1],8<5[4:1],5,
{8}2>5[8:1],2<7[8:1],2-6[8:1],,,8x,8x,,{4}3p6[4:1],6p1[4:1],1>4[4:1],4,
{8}7<4[8:1],7>2[8:1],7-3[8:1],,,1x,1x,,4-7[8:1]/B2h[4:11],,,,6-1[8:1],,,,
{8}8-4[8:1],,,,5,6x,6x,,{4}7<5[8:1],7>1[8:1],7-3[8:1]b,,
{16}5,6,7,8,1,,4,3,2,1,8,,{4}1h[2:3]b/5h[2:3]b,,,,,
{1},,
{8}5s1[4:3]*z1[4:3],,,,,{1},{8}B1/B2/E2f,B5/B6/E6f,,
{8}7h[2:5],,4qq5[2:1],4,4,,,,,,6,6,6,,8z4[2:1]b,8,
{8}8,,,,,,,{16}4,5,4,,{8}3,2,1h[4:1]/5<1[4:1],,,2,2,
{8}2h[2:1],,3<6[4:1],3,3,,,,7,7v5[4:1]b,,1,1v3[4:1]b,,4,,
{8}6pp5[8:3],,,4,3qq4[8:3],,,5,6,,{4}5/7,2/4,4b/5b,
{16}6x,5,6,7,6,,{8}5/6,4,3,2/8,1xp6[8:3],,6,6>2[4:1],,4,,,,
{16}3x,4,3,2,3,,{8}3/4,5,6,{16}7x/8x,1x,2x,3x,4xv1[16:3],,,,{4}4v7[16:3],4,3,
{16}6x,5,6,7,6,,{8}5/6,4,3,2,1x/7x>2[8:1],,3,3<6[8:1],,6,7,8-5[8:1]*-6[8:1],,
{8}8-2[8:1]*-3[8:1],,8,,5,6,7,5V38[8:3]b/8-5[8:3],{1},
{8}6x-1[8:1],,5/6,4,3-8[8:1]/8-5[8:1],,3/8,,1,2,3-8[8:1]/8-5[8:1],,3/8,,{24}1,2,3,4,,,
{8}8/4>8[4:1],,4/7,6,5<1[4:1],,2/5,,{16}4,3,2,1,8,,{8}1/7,6,4/5,1/8,,
{8}3x-8[8:1],,3/4,5,1-4[8:1]/6-1[8:1],,{4}1/6,3-1[8:1]/7-5[8:1],3-5[8:1]/7-1[8:1],3/7,{8}4/8,3/7,
{4}2v8[8:1]/6v4[8:1],,3v5[8:1]/7v1[8:1],,2<7[4:1],7>2[4:1],4-8[8:1],4b,
{4}1x-5[8:1]/2x-4[8:1],1x-7[8:1]/2x-6[8:1],1x-5[8:1]/2x-4[8:1],1x/2x,{8}6,7,8/1<6[8:1],2,1/3<6[8:1],,3,,
{4}7x-5[8:1]/8x-4[8:1],7x-3[8:1]/8x-2[8:1],7x-5[8:1]/8x-4[8:1],7x/8x,{8}3,2,1/8,7,5/6h[4:1],4b,1b,,
{4}1x-5[8:1]/2x-4[8:1],1x-7[8:1]/2x-6[8:1],1x-5[8:1]/2x-4[8:1],1x/2x,{8}7,8,1/2<7[8:1],3,2/4<7[8:1],,2/4,3,
{4}4xv2[8:1]/8xv6[8:1],4/8,1xv3[8:1]/5xv7[8:1],1/5,{8}8-2[8:1]b,2-6[8:1]b,6x-4[8:1]b,4,3w7[8:1],,3b,
E

Re:MASTER


名前:
コメント:

タグ:

+ タグ編集
  • タグ:
最終更新:2026年09月06日 19:25