BASIC
ADVANCED
EXPERT
MASTER
(124){32}B7,B6,B5,,,,,,{4},(151){2},
(166){32}B2,B3,B4,,,,,,{4},(151){2}7xv8[4:3],(155){1},
(127){2}B6,(110)B3,(125.2){1}Cf,
(191){4}1,1-5[8:1]/8-4[8:1],A1/A8/D1f,7x^8p1^2[8:5],
1,,4,4,4,{8}7,7,5,5,{4}8x^1-6qq5[8:5],4,,1,1,2h[4:1],4h[4:1],6h[4:1],8x-5^4-2[8:5],
4,,1,1,2x/4x,{8}6,6,{4}5,78,57,{8}3,3,{4}4,12,57,78,24,12,
37,{8}26,3,{4}35,2^5[8:1]/6^1[8:1],2b/6b,48,{8}1,1,{4}2^5[8:1]/6^1[8:1],
2b/6b,48,{8}1,1,{4}2^5[8:1]/6^1[8:1],2b/6b,48,{8}1,1,7,7,
{4}5,2V46[4:3],E7,E6,E5,E4,E3,18,
1v2[8:1]/8v7[8:1],1x/8x,B3/B4/B5/B6/E3f/E4/E6/E7/C,,12,7/8-4[8:1],2b/8,,
{16}3x,4x,3x,4x,3x,,,,6x,5x,6x,5x,6x,,,,
{8}3hx[16:1]/5hx[16:1],3hx[16:1]/5hx[16:1],3x/5x,,6hx[16:1]/4hx[16:1],6hx[16:1]/4hx[16:1],6x/4x,,
{16}3x,5x,3x,5x,3x,,,,7x,5x,7x,5x,7x,,,,
{8}3hx[16:1]/4hx[16:1],3hx[16:1]/4hx[16:1],3x/4x,,{16}2x,3x,2x,3x,2x,,,,
{1}4bx-1[1:1],{2},{32}A8,E8,B7,B6,A5/A6/D6f/E6,,,,{4},
3-1[8:1]/4-7[8:1],3b/4b,8b,8b,2b/5b,3-8[8:1]/6-1[8:1],3b/6b,,
7qq4[8:7]b,1h[4:1],,1,2,2,3h[4:1]/4h[4:1],,
34,{8}A1/B1/E1,A7/B7/E8,{4},A5/B5/D5/D6/E5/E6,,{8}A1/B1/E1,A7/B7/E8,{4},A5/B5/D5/D6/E5/E6,
3qq8[8:7],{8}6,6,6,,5,5,{4}5,6,7h[4:1]/8h[4:1],,
78,{8}A8/B8/E1,A2/B2/E2,{4},A4/B4/D5/D4/E5/E4,,{8}A8/B8/E1,A2/B2/E2,{4},A4/B4/D5/D4/E5/E4,
{4}7-5[8:1],2-4[8:1],8^5[8:1],1^4[8:1],8-4[8:1],1-5[8:1],7,8,
{24}1x/7x,2x/6x,3x/5x,,,,{4}1,{24}8x/2x,7x/3x,6x/4x,,,,{4}8,
B2f/B3/B4/B5/B6/B7/A3/A6,,18,3/6^1v7[2:1],
4hx[4:5],,,8,7,6,4-1[8:1]/5h[4:1],4b,
{2}E7h[4:1],Ch[4:1],{8}E3,,5x,4x,,3x/6x,{4}3xpp4^1[2:1]b/6xqq5^8[2:1]b,
B3/B6/Cf,,,1/2-5[8:1],28,8/7-4[8:1],71,12,
{24}1x/2x,3x,4x,5x,6x,7x,8x,1x,2x,3x,4x,5x,{4}6x,5-8[8:1]/6^8[8:1],
56,5-1[8:1]/6-1[8:1],56,5-2[8:1]/6-2[8:1],
56,8,56,4-1[8:1]/3^1[8:1],43,4-8[8:1]/3-8[8:1],43,6,
2h[4:1]/4,3b,7h[4:1]/5,6b,2h[4:1]/4,3b,7h[4:1]/5,6b-3[8:1],
8-5[8:1],1-4[8:1],6<3[4:1],3>6[4:1],5b,4,4-8[8:1]/5-1[8:1],,
{24}3x,6x,3x,6x,3x,6x,3x,6x,3x,6x,3x,6x,{4}3x-1[8:1],8-6[8:1],5,4^2-6[8:3],7-1[8:1],,
4h[4:1]/8x,2h[4:1],8h[4:1],6h[4:1],5,4-2[8:1]/6-8[8:1],4b/6b,5xqq1[2:1],
3,8x,2,4xpp8[2:1],6,1x,7,1v2[8:3],
6b,,{8}7,7,{4}5>1[4:1],1<5[4:1],5,1,7-5[8:1]/8-4[8:1],
78,2-4[8:1]/1-5[8:1],21,7q6[8:3]/8>5[8:3],7x/8x,,,1-4[4:1],
4-8[4:1],8-5[4:1],5^2[4:1]b,2^7[4:1]b,7^4[4:1]b,4,1,4/8-5[1:1],{1}8b,,,,E
Re:MASTER
- MASTER譜面を追加しました。修正等ありましたらよろしくお願いします。 -- けもがみ (2026-09-21 18:37:21)
最終更新:2026年09月21日 18:37