| アーティスト |
HoneyWorks, かぐや(cv.夏吉ゆうこ) |
BASIC
ADVANCED
EXPERT
MASTER
(193){1},
{4}6,6,5-1[8:1]/6,5/6,
{8}7x,8,1,7x,8,1,4x,5,2x,1,8,2x,1,8,7,6,2x,1,8,2x,1,8,5x,4,7x,8,1,7,8,3,4,5,
{8}3-8[8:1],3,4-7[8:1],4,1-6[8:1],1,5-2[8:1],5,8-3[8:1],8,7-4[8:1],7,2,2,7,7,
{16}1,8,1,8,1,8,1,8,1,8,1,8,1,8,1,,2/5,,3,4,3,,5/6,,4/7,,3,2,1,8,7,6,
{8}5,,3bx/7bx,,2x/6x,,3/5,3>7[4:1]/5,,7>3[4:1],,5,5,,6,,
{8}3-8[8:1]/5-7[8:1],,3b/5b,,2x/6x,,3,2-5[8:1],,6,6,,{16}7,5,7,5,7,5,7,,
{8}6-1[8:1]/4-2[8:1],,6b/4b,,7x/3x,,2/8,2/8<4[4:1],,4<8[4:1],,2,,1,1-5[8:1],,6-3[8:1],,2-7[8:1],,5,,6,6h[4:1],,5,4/7,4/7,,1/6,1>5[4:1]b/6,,
{8}5<1[4:1]b,,1,,5,,4,,3-1[8:1]/5-7[8:1],,,,2x/6x,A8/E8/D8,A3/E3/B3,,
{8}7^4[8:1],,1^4[8:1],,6h[4:1],,4x,,3v2[8:1]/7v6[8:1],,,,1x/8x,A2/B2/E3,A6/B6/E6,,
{4}3-1[8:1]/7-5[8:1],,2-4[8:1]/6-8[8:1],,1/5,4qq5[8:3]/6pp5[8:3],,,4x/6x,{16}4x/6x,,3,5,{8}3,2-6[8:1],2,4h[4:3],,,,,,E5f,E4f,E3f,
{8}1x-5[8:1],,6,7,7pp4[4:1],,4,,3-8[8:1]*-7[8:1],,,,1x,3x,5x,7x,
{8}6h[8:1]/8h[8:1],,2h[8:1]/4h[8:1],,1h[8:1]/3h[8:1],,5h[8:1]/7h[8:1],,5/7,5/7,4/6,4/6,3/5,,1>5[4:1],,
{8}5<1[4:1],,1,,5,,3/7>2[4:1],,2p6[4:1],,6>3[4:1],,3,,2,,
{8}1b/5b,,2/4,2/4,3,,5-8V41[2:1]b/7,,6h[2:1],,,,,,2/5V71V75[4:3],,
{8}3,,4,4,,,3bV17V13[4:3],,6,,4,4,,,5b,,
{8}6h[4:1],,4,,3/5,,4>3-8[4:1]/6<7-1[4:1],,,,,,3x,,2^4[8:1]/5^8[8:1],,
{8}2/5,,7,7,5/6,,7^5[8:1]/4^1[8:1],,7/4,,2,2,4/3,,5-7[8:1],,
{8}4-1[8:1]/5b,,4b/6,,7/8,,1/8qq8[4:1]b,,4h[4:1],,,,7,,5>8[4:3]/6,,
{8}7,,6,,5,,4,,{16}8,4,8,4,1,5,{8}1,3x/6x,{4}3xh[8:5]/6xh[8:5],,,{24},,,4,5,6,7,8,1,{4}2,
{8}7b/8b,,4-2[8:1]/6-1[8:1],,,,3-8[8:1]/5,,3/7h[4:1],,2,,E3/A3/E4/B4/B5/E6/A6/E7,,2x/7x,,
{8}1b/2b,,3/5,,1/8,1V35[8:1]/8V64[8:1],,,,3x/6x,3x/6x,,3/4,,5<8[8:1]/6>2[8:1],,
{8},,3xh[4:1],,4,3<7[8:1]/4>1[8:1],,,,6x,6x-4[8:1],,8,8,,
{8}5/7,,2/4,2/4,,1/7,1/7,,2-4[8:1]/6-8[8:1],,2/6,,{24}4x/8x,3/7,2/6,{4}1bx/5bx,3b-8[8:1]/7b,
{8}3/6-1[8:1],,2/6,,8,8v6-4[8:3],,3,,2,2<6[4:1],,6<2[4:1],,4-8[8:1],,
{8}4-1[8:1],,4/7,,8b,8b,,1/7,1/7V53[4:1],,3V57[4:1],,2,,1-4[8:1]*-6[8:1],,
{8}1b,,3x/7x,,2/5,1,8,7,5/6-8[8:1],,5b/6b,,7/4,8,1,2,
{8}4/3-1[8:1],,4b/3b,,2/5,2/5>1[4:1],,1p5[4:1],,5,,3b,,2/5,2h[4:5]/5,,
{4}4b,4b,1b,3b,5b,4/7b-1[8:1],5/7b,{8}4,3,
{8}2h[8:1]/4h[8:1],,5,6,5h[8:1]/7h[8:1],,4b,,{16}3,5,3,5,4,6,4,6,{8}4,,2b/8b,,
{8}1xw5[8:1],,1bx,,3/7,,2,2h[4:1],,1,1,,8,7,5-3[8:1]/6,,
{8}5/7-1[8:1],,2-6[8:1]/7,,2/8,,7,7h[4:1],,5,5,,4,3,1-7[8:1]/2,,
{8}1/3-5[8:1],,3/6-2[8:1],,4/6,,3,3h[4:1],,1,1-5[8:1],,1-4[8:1]*-6[8:1],,1,,
{8}5/7,6,2/4,3,5/7,6,2/4,2/4,,5/7,5/7,,4v1[8:1]/8-5[8:1],,4x/8x,,
{16}2,6,4,8,{4}Cf,,,,{8},{16}4x/8x,3/7,2/6,1/5,E
Re:MASTER
最終更新:2026年10月19日 00:06