アットウィキロゴ

群青声明

アーティスト 佐藤塩 & 西園チグサ

BPM BASIC ADVANCED EXPERT MASTER Re:MASTER
160 5 7 11 13+ -

EXPERT MASTER Re:MASTER
譜面制作者 サファ太 せめんともり & カマボコ君 -

BASIC


ADVANCED


EXPERT


MASTER

(160)
{2},{16}1,8,1,8,{4}2/7,
{16}4b/5b,,3,4,,2,,2h[16:3],,,1,,3/4,,,,6,,6,7,,7,,7h[16:3],,,8,,6/5,,,,
{16}1h[8:1],,8,2,,1/3,,1h[16:3]/3h[16:3],,,,,4/8,,,,7h[8:1],,8,7<2[4:1],,6/8,,1,,,,,,,,,
{16}1b/8b,,7,8,,5/6,,5/6,,,7x,,8x,,1x,,2,,2,1,,3,,1/3,,,3,4,3,4,3,,
{16}7,,7,5,,5,6<1[8:1],,,,5,,4,,3,,1b/3b,,,6b/8b,,,{8}2b/7b,,3/6,3/6-4[8:1],,

{4}2/6,2,2,2/4h[4:1],2,2,2,2/3h[4:1],
{4}2,2,1/2,{8}2,3,2,,2,4,{4}2,3/5,
{8}5h[16:3]/7,,7,5,7,,7,,6h[16:3]/7,,7,6,7,,5/7,,
{8}6h[4:1]/7h[4:1],,,1/8,1h[4:1]/8h[4:1],,,2-6[8:1],,1,1,,4/8,,{16}7,5,6,,
{16}7/8,,6>3[8:1],5,7,,1b,,,,8,,1,,2,,3h[16:3],,,1h[16:3],,,8,,,,5/6,,5/6,,,,
{16}7/8,,6,5,6,,4/5,,3/4,,2<5[4:1],4,3,,Cf,,,,,,,,6h[4:1],,,,5,,5/6,,,,
{16}5h[8:1]/7h[8:1],,,1h[8:1]/2h[8:1],,,3/4-1[8:1],,,,2,,2,,,,1h[8:1]/3h[8:1],,,5h[8:1]/6h[8:1],,,7/8-5[8:1],,,,6,,6,,,,
{8}5/7,5/7,,{16}2,4,3V15[4:1],,4,,5bV38[4:1],,,,,,7,,7,,7,,,,1/6,,1/6,,,,

{8}2h[8:3],,,4,4,3p6[4:1],3,5,,,{4}E5,E6,E8,
{8}7h[8:3],,,5,5,6q3[4:1],6,4,,,{4}E5,E4,E2,
{16}3/5,,2,4,2,4,2h[8:1],,6,4,6,4,6,,,,6/4,,7,5,7,5,7h[8:1],,3,5,3,5,3,,2/4,,{8}2h[4:1]/4h[4:1],,,1h[4:1]/8h[4:1],,,{16}5/7>6-8[8:5],,,B6f/E6/E7,{1},
{24}7x,6x,5x,2x,3x,4x,8x,7x,6x,{16}2x/5x,,2x/5x,,3/4,,2,1,,7b/8b,

{16},,5/6V82[8:1],,3/4,,6,5b,,,,,4,4,,1b/2b,,,7V13[8:1]/8,,5/6,,7,4b,,,,,6,6,,
{16}5/7,,,1/2,,2/4,,7x/8xpp8[4:1],7x/8x,,,,,6,6,,5h[16:3],,,8h[8:1],,4,4,,2bx/6bx,,,1/5,,1x^4[8:1]/5x,,,,
{8}1-5[8:1],7,5x,{16}8,8,,,4/6pp1[2:1],,5,,4,4,,,3,,2,,2,,3/8,,7h[8:1],,6h[8:1],,5,
{16}5,,,3/4-8[8:1],,2,,4,3,,,2-6[8:1],,1-5[8:1],,2>5[8:1],,1<6[8:1],,2,,1,,,2xh[16:3],,,8,,

{16}3/7,3/7,,5b/6b,,,7V53[8:1]/8,,1/2,,7,8b,,,,,2,2,,3b/4b,,,5/6V42[8:1],,7/8,,6,1b,,,,,2,2,,
{16}3/4,,,5/6-1[8:1],,7/8,,6,5b,,,2,,2xh[8:1],,1,2,,,3/8,,7,8,,1b/6b,,,2/5,,2<7[8:1]/5,,,,
{16}2V48[4:1],,4,,5x,5x,,6b,,,5/7,,5/7>2[8:1],,,,7V51[4:1],,4,,3x,3x,,2b,,,3/8,,3/8-4[8:1],,,,
{16}3,,2,,1>7[4:1],1,,5,,,,,8w4[8:1],,,,{4}Cf,,{8},8b,,,

{16}2h[8:1],,4,3,,3h[8:1],,4h[8:1],,5,,5/6,,,7h[8:1],,5,6,,4/7,,4/7,,6,6,5,7,3,3,4,2h[8:1],,
{16}4,3,,3,4,,2/5,,3,4,3,4,3x,,3h[16:3],,,1h[16:3],,,8h[16:3],,,6h[16:3],,,5,,3,4,,2/5,
{16},3/6,,4/7,,4/7,,6,5,,5/6,,7,8,,1/6,,2/7,,3/8,,1/2,,3,4,,2,1,2,1,3,8,
{16}3,8,4,7,4,7,5,6,5,6,3,4,2,6,5,7,2,4,{32}E3,E4,E5,E6,E7,E8,E1,E2,{4}E3f,

{4}5-1[8:1]/6-2[8:1],5/6,3-7[8:1]/4-8[8:1],3/4,6<2[4:1],2>6[4:1],6,2,
{8}3/4,,3,4,5/6,7,7<4[8:1]/8,,{4}1-6[8:1]/7,3-8[8:1]/1,3/4,1/7,
{8}8-4[8:1],3,8-3[8:1],1,8-5[8:1],7,8,,1-5[8:1],6,1-6[8:1],8,1-4[8:1],2,1,,
{8}3h[4:1]/8h[4:1],,,{16}2,1,2,,3/8,,4/7,,5/6,,4/7,,6,5,6,,3,4,3,,2/5,,2b/5b,,,,
{4}3/8-4V61[4:3],,,3,2h[2:1],,8,{16}1,8,7,6,
{8}5V86[2:1],,,,,{16}4,3,{4}2h[4:1],4h[4:1],5h[4:1],7h[4:1],1h[4:1],
{2}5p4[4:3],E3,4xqq5[4:3],B3,
{2}5x<1[4:3],C,{8}E5h[8:3],,,E4/E6,,,,,

{16}3,3,5,4,4,6,3,3,5,4,4,7,5,6,4,
{4}8bh[16:13],,,{16},6,,,{4}6h[16:13],,,{16},4,,,
{4}4h[16:13],,,{16},2,,,{4}2h[4:2],,,,{16},
{1}1xq6[2:1]/2x>5[2:1],8xp3[2:1]/7x<4[2:1],
{1}3V15[2:1]/4<8[2:1],{4}1>5[4:1]/1<5[4:1],,,4/6,
{8}3h[8:1],,3h[8:1],,2h[8:1]/4h[8:1],,2/4,1,1h[8:1],,1h[8:1],,8h[8:1]/2h[8:1],,8/2,7,
{8}7h[8:1],,7h[8:1],,5h[8:1]/6h[8:1],,5/6,7,7h[8:1]/8h[8:1],,7h[8:1]/8h[8:1],,8h[8:1]/1h[8:1],,8/1,,
{16}2/5,,2/5,,3,4,3,4,3,4,3,,2/5,,6,,4/7,,4/7,,6,5,6,5,6,5,6,,4/5,,3,,
{4}2b/6b,,,1/7,{16}1/7,,6,5/7,,3,2/4,,7,7,5,6,4,5,,

{8}2b/6b,,,,,,{16},1/2,1/2,,3b/7b,,,,,{12}8b,5,6,1,4,2-6[8:1]b,{16}2,4x,,
{16}8b,,,7h[8:1],,5,,4x/6x-4q1[4:1],4x/6x,,,,,3,3,,4h[16:3],,,1h[8:1],,5,5,,3bx/7bx,,,2x/8x,,2x/8x<5[8:1],,,,
{16}8-3[8:1],,3,,8x,,4,4h[16:3],,2,2V86[4:1],,3,,4,4bx,,,3,,2,,1,,8,,4/7,,6h[8:1],,5,
{16}5,,,7<4[8:1]/8,,1/6,,8,8,,,2-6[8:1],,5<8[8:1],,2-4[8:1],,5-1[8:1],,2,,4,,,3xh[16:3],,,1,,
{16}4/8,4/8,,7,5-1>4[4:1]*-1<6[4:1],6,3,7,{2}E5/E6/B5f,{16}1/2,1/2,,3b/4b,,,7p2[4:1]/8,,5/6,,1,1b,,,,,7,7,,
{16}4/5,,,1/2V51[4:1],,3/8,,6x,6x,,,7x,,6xh[8:1],,8,8h[8:1],,1,1h[8:1],,3,3,,3b/4b,,,2/5,,2<7[8:1]/5,,,,
{16}2-4p8[8:1],,4,,5x,5x,,6b,,,5/7,,5/7>2[8:1],,,,7<4v1[4:1],,4,,3x,3x,,2b,,,3/8,,3V15[8:1]/8-6[8:1],,,,
{16}3/8,,,,7,7,,6/8,,{32}1,2,3,4,5,6,7,8,1,2,{8}3,E1/E2/B1/Cf/E6/B5/E5,,,,,{16}6,4,,3,5,,

{16}2>5[8:1]/6,,,1,1,,8>3[8:1],,,7,7,,6<1[8:1],,,5,5,,4<7[8:1],,,3,3,,{8}2b,1b/3b,4b/8b,2b/6b,E

Re:MASTER


名前:
コメント:

タグ:

+ タグ編集
  • タグ:
最終更新:2026年10月27日 00:10