BASIC
ADVANCED
EXPERT
MASTER
(139)
{16}3,,3,5,,,{8}4/6,,4/5,2x/7x,,
{8}1b/6b,1>5[4:1],,5<1[4:1],,1>5[4:1],,5,
{8}6,7h[8:1],,1h[8:1]/8h[8:1],,2h[8:1]/4h[8:1],,5/7,
{8}5,8<4[4:1],,4>8[4:1],,8<4[4:1],,4,
{8}3,2h[8:1],,1h[8:1]/8h[8:1],,5h[8:1]/7h[8:1],,2/4,
{8}4,1>5[4:1],,5<1[4:1],,1>5[4:1],,5,
{8}6,7h[8:1],,1h[8:1]/8h[8:1],,2h[8:1]/4h[8:1],,5/7,
{8}5,8<4[4:1],,4,3,2,,1h[8:5]/8bz4[8:3],
{4},,,E6,
{1}4h[2:3]/6p4>1[4:5],
{1},
{1}3q5<8[4:5]/5h[2:3],
{1},
{1}4h[2:3]/6p4>1[4:5],
{4},,,8,
{4}B2/B3/E3,B6/B7/E7,1h[1:1],,
{4}3,5,7,B3/B4/B5/B6/E4/E6,
{4}7x-2[8:1],5h[2:1],1,8,
{4}6-3[8:1]/7-2[8:1],,1/4,3/6,
{8}6h[8:3],,5,5,7h[4:1],,6,,
{8}5/6h[4:1],,5,5,7,,4/6,,
{8}1/2,8,1/2,3,1/2,8,3/7,,
{8}5/6,4,5/6,7,5/6,4,3/7,,
{4}6/5-8[8:1],5/4-1[8:1],4/3h[4:1],{8}8,8<1[8:3],
{8},4,4h[4:1],,,,1x/8x,,
{16}5bx/7bx,,3,4,3,,6,5,6,,2,4,3,,7,5,
{8}6,1-5[8:1],7>6[4:1],1,7,,B3,,
{8}2,2h[4:1],4,4h[4:1],6,6h[4:1],8,8,
{16}1/7,,3,4,2,,{8}1/5,3/7,,2/5,5/2h[4:1],
{8},3,3<7[8:1],1,1-5[8:1],,8,8h[4:1],
{8},6,6p1[8:1]*>2[8:1],,,,8,,
{8}1/7h[8:3],,6,6>3[8:1],,8w4[8:1]b,,8b,
{8},,,,,5/6,3x/8x,,
{8}1b/6b,2,3/4,{16}5>3v8[4:1],4,,,{8}8,1,2,
{8}3/7,6,4/5,{16}3,4h[16:3],,,{8}3b,1b/8b,,
{8}1/6,2,3/4,{16}6,5h[16:3],,,{8}1,1,8/5-1[8:1],
{8}8,7,7,6b/8b>3[8:1],,7h[4:1],,4,
{8}4h[4:1],1,5h[4:1],1,4h[4:1],1,6,1/6,
{16}7,8,7,8,7,8,,6b/1b>4[8:1],,,{8}5,6,7,
{8}5/8,6,1/4,3,4/5,4/6,4/7,8bx/4bxpp4[4:1]*qq4[4:1],
{8},,,,,5x/6x,3x/8x,,
{8}1b/6b,2/5,4/6,{16}7V51[4:1],5,,,{8}8,2,4,
{8}5/8,4/7,3/5,{16}2,4h[16:3],,,{8}3b,1b/8b,,
{8}1/7,2/5,4/6,{16}7,5h[16:3],,,{8}1-7[8:1],1,5-1[8:1],
{8}5,6,6,7b/8b-4[8:1],,2/8,,3/5,
{8}6h[8:1],5h[8:1],4h[8:1],3h[8:1],1h[8:1],8h[8:1],6,4/5,
{16}2,1,2,1,2,1,,3b/8b<5[8:1],,,{8}4,3,2,
{8}4x/1x-3[8:1],4,6x/1x-5[8:1],6,1x/8xh[8:1],,2/7,3bxqq5[8:5]b/6bxpp4[8:5]b,
{1},
{4}8b>3[8:1]*-3[8:1],8<5[8:1]*-5[8:1],8,4x/6x,
{8}3/5,3/5qq5[4:1]*pp5[4:1],,,,,,7p3[8:1],
{8}7,1>4[8:1],1,8p4[8:1],8,3,3,,
{8}5-1[8:1]/6-1[8:1],,5b/6b,,2,1/3,4/8,5/7,
{8}6h[4:1],,7h[8:1],5h[8:1],8h[8:1],4h[8:1],1h[8:1],3h[8:1],
{8}2-4[8:1]*-8[8:1],,2x,,7bxh[8:1],5bx,2bxh[8:1],4bx,
{8}6h[1:1],4x,4x,4x,5x,5x,7x,7x,
{4}8-2[8:1]*-3[8:1],8x-5[8:1]*-6[8:1],8x>7[4:1]b,8bx,
{8},,2b/7b,{16}3,1,3,,6,8,6,,3/5,,
{16}3/5,,2,4,2,,7,5,7,,2,4,2,,3/5,,
{16}3/5,,3,1,3,,6,8,6,,3,1,3,,3/5,,
{8}4/6,5/7,6/8,1/7,2h[8:1]/8h[8:1],,3h[8:1]/5h[8:1],,
{8}4<8[8:3],,8,8-4[4:1],,4>1[4:1],,1<6[4:1],
{8},6,,,5h[8:1]/7h[8:1],,2h[8:1]/4h[8:1],,
{4}5-8[8:1]/6h[1:1],5,5-2[8:1],5,
{8}5v2[8:1]*v8[8:1],,5x,,1/7,5/6,3/4,1bxqq6[8:11]/2bxpp5[8:11],
{1},
{8},,,,,,,3bxqq5[8:21]/6bxpp4[8:21],
{1},
{1},
{8},,,,,,,A6,
{8}A5,A4,A3,A2,A1,A8,A7,1x/6x,
E
Re:MASTER
最終更新:2026年09月20日 15:13