BASIC
ADVANCED
EXPERT
MASTER
(152)
{8}3,3,4,,6,6,5,,
{8}2,2,4,,7,7,5,,
{8}3,3,5,4,6,6,5,,
{4}4/7,2-6[8:1]/5h[4:1],,,
{4}5h[8:1]/7h[8:1],5h[8:1]/6h[8:1],5h[8:1]/7h[8:1],5h[8:1]/6h[8:1],
{4}5h[8:1]/7h[8:1],5h[8:1]/7h[8:1],5/7h[1:1],,
{4}5p8[4:1],,,7/8,
{4}5/6,3/4,2/5,3h[8:1]/4h[8:1],
{4}2h[8:1]/4h[8:1],3h[8:1]/4h[8:1],2h[8:1]/4h[8:1],3h[8:1]/4h[8:1],
{4}2xh[8:1]/4xh[8:1],2xh[8:1]/4xh[8:1],4x/2xh[1:1],,
{4}4q1[4:1],,,1/2,
{4}2/4,2-4[8:1]/4-6[8:1],,5/7,
{16}7h[16:3],,,5h[16:3],,,{8}6,6,,7b/8b,,
{4}7h[8:1]/8h[8:1],1h[8:1]/8h[8:1],1h[8:1]/2h[8:1],3/4,
{16}2h[16:3],,,4h[16:3],,,{8}3,3,,1b/2b,,
{4}1h[8:1]/2h[8:1],1h[8:1]/8h[8:1],7h[8:1]/8h[8:1],1/6,
{12}2x,2xh[6:1],,4x,,,7x,7xh[6:1],,5x,,,
{12}2,2h[6:1],,4,4h[6:1],,5,5h[6:1],,7,,,
{2}E6/E7,E3/E4,
{4}1/2,7/8,1/8,E1,
{8}5/7,6,5/6,,2/4,3,3/4,,
{4}3h[8:1]/4h[8:1],5h[8:1]/6h[8:1],7h[8:1]/8h[8:1],1/6-4[8:1],
{4}8-2[8:1],6-4[8:1],8-2[8:1],6,
{8}1h[4:1]/5pp4[2:1],,,,,2x,2x,,
{8}3/4,2,2/4,,5/6,7,5/7,,
{4}5h[8:1]/6h[8:1],7h[8:1]/8h[8:1],1h[8:1]/2h[8:1],3/4,
{4}1-5[8:1]/2-4[8:1],1x/2x,7-5[8:1]/8-4[8:1],7x/8x,
{4}1V73-5[2:1],,,E7f,
{4}7h[2:1],8,2h[2:1],1,
{8}7,7,5/6,,2,2,4/3-1[8:1],,
{4}5-8[8:1],4-1[8:1],6-8[8:1],5,
{8}3,,1/2,1/2,3/8,,6/1>5[4:1],,
{4}5<1[4:1],1>5[4:1],5<1[4:1],1>5[4:1],
{4}5,1,3/7,2/6,
{4}7-5[8:1]/8-4[8:1],7x/8x,1-5[8:1]/2-4[8:1],1x/2x,
{1}8V26-4[2:1],
{2}2h[4:1]/4h[4:1],5h[4:1]/7h[4:1],
{4}E7,E6,E3,B4/E4/E5,
{4}8<5[4:1],3,1>4[4:1],6,
{4}7h[4:1],5h[4:1],4h[4:1],2,
{4}1>4[4:1],6,8<5[4:1],3,
{8}2h[4:1],,4,,5,4x/6x,4x/6x,,
{4}7,7-3[4:1],2,2,
{4}2/4,2/4-8[4:1],2,2,
{4}1/2,1/2,2/3,2/3,
{4}2/4,2/4,3h[4:1]/4h[4:1],,
{4}2,2q6[4:1],7,7,
{4}5/7,7/5p1[4:1],7,7,
{4}7/8,7/8,6/7,6/7,
{4}5/7,5-2[8:1]/7-4[8:1],,1/3,
{16}2h[16:3],,,3h[16:3],,,{8}4,4,,1b/3b,,
{4}1h[8:1]/3h[8:1],1h[8:1]/8h[8:1],6h[8:1]/8h[8:1],5/6,
{16}7h[16:3],,,6h[16:3],,,{8}5,5,,6b/8b,,
{4}6h[8:1]/8h[8:1],1h[8:1]/8h[8:1],1h[8:1]/3h[8:1],3/4,
{12}2x,2x,4x,3x/4x,,,7x,7x,5x,5x/6x,,,
{12}7,5,6,2,4,3,7,5,6,1,,,
{6}1x/7x,2x/8x,1x/7x,2/8,1/7,2/8,
{6}1/6,3/8,1/6,8bx-4[8:1],,,
{4}3h[8:1]/5h[8:1],2h[8:1]/4h[8:1],3/5-7[8:1],4,
{4}4h[8:1]/6h[8:1],5h[8:1]/7h[8:1],6/4-2[8:1],5,
{4}3h[8:1]/5h[8:1],2h[8:1]/4h[8:1],3h[8:1]/5h[8:1],4/2-7[8:1],
{4}3-6[8:1],2-7[8:1],3-6[8:1],1,
{8}7xh[8:5],,,,,8,8,,
{8}2h[8:5],,,,,1,1,,
{2}3h[8:3]/4h[8:3],5h[8:3]/6h[8:3],
{4}5/7,2/4,4/5,E5,
{2}3<1[4:3],E8,
{2}6>8[4:3],E2,
{1}3<1[4:3],
{4}6h[4:3],,,1b,
{4}2>5[4:1],6,7<4[4:1],2,
{4}1>4[4:1],7,8<5[4:1],4,
{2}3bh[4:1],5bh[4:1]/7bh[4:1],
{8}4,4,6,6,2,2,8b,,
{4}1/2,3/4,5/6,7b/8b,
{2}2-5[8:1]/6-1[8:1],3-8[8:1]/7-4[8:1],
{4}2-5[8:1]/6-1[8:1],,3/7,2/6-8[8:1],
{4}4-1[8:1],5-8[8:1],3-1[8:1],5,
{8}6,6,4,,3/5,,2b/6b,,
{2}2-7[8:1]/6-3[8:1],1-4[8:1]/5-8[8:1],
{2}4x-1[8:1]/8x-5[8:1],1x>4[8:1]/5x<8[8:1],
{4}7-2[8:1],4-1[8:1],5-8[8:1],2,
{4}3z7[8:3]/6s2[8:3],,,3bx/6bx,
{8}7,7,5,5,5-8[8:1]/6-8[8:1],,5x/6x,,
{8}2,2,4,4,3-1[8:1]/4-1[8:1],,3x/4x,,
{4}7-5[8:1]/8-5[8:1],7x/8x,1-4[8:1]/2-4[8:1],1x/2x,
{4}5xqq5[4:1]*pp5[4:1],,,4x/6x,
{8}2,2,4,3,6,6,4>8[4:1],,
{4}8<4[4:1],4>8[4:1],8,4,
{4}6/2-5[8:1],7-3[8:1],4-8[8:1],1,
{4}2s6[8:3]/7z3[8:3],,,1bx/8bx,
{4}E1,C,E5,E4/E6,
{4}B4h[2:1]/B5h[2:1],,,C,
{4}7x,7x/8x,2x,1x/2x,
{4}3/5,2/6,2>4[8:1]/6<8[8:1],,
{4}8h[4:1],6h[4:1],4h[4:1],2h[4:1],
{4}8,3-6[8:1]/7-2[8:1],
E
Re:MASTER
(152)
{8}6h[4:1],,5,5,7<5[4:1],,5>3[4:1],,
{4}3>1[4:1],1<7[4:1],7<5[4:1],,
{8}3h[4:1],,4,4,3-1[8:1],,5-3[8:1],,
{4}7-5[8:1],1-3[8:1]*-5[8:1],,4/6,
{4}5,5,5<7[8:1],5,
{4}5x,5xp8[4:1],5x,5x,
{4}5/8h[8:3],5,5/8,5/7,
{4}4/5,5/6,3h[4:1]/5h[4:1],,
{4}4-2[8:1],4,4-8[8:1],4,
{4}4,4/E7hf[4:1],4,4,
{4}4/1h[8:3],4,1/4,2/4,
{4}4/5,4/3-6[8:1],6x,,
{16}7h[16:3],,,5h[16:3],,,{8}4h[4:1],,3,1b/5b,,
{8}7h[8:1]/8h[8:1],,7h[8:1]/8h[8:1],,7/8,7/8,1x/6x,,
{16}2h[16:3],,,4h[16:3],,,{8}5h[4:1],,6,4b/8b,,
{8}1h[8:1]/2h[8:1],,1h[8:1]/2h[8:1],,1-5[8:1]/2-4[8:1],8,,,
{12}6,6,5,7h[4:1],,,1,1,8,2h[4:1],,,
{12}4,4,3,5,5,4,6,6,5,7,,,
{2}7h[8:3]/8q4[8:1],5h[8:3]/6<1[8:1],
{4}5qq5[4:1],5pp5[4:1],,E4,
{8}2h[8:1],4,4/2h[8:1],,2h[8:1],4,4/2h[8:1],,
{4}5/3h[8:1],2/4h[8:1],6/5h[8:1],6/7>2[8:1],
{4}6x>3[8:1],7x>2[8:1],6x>3[8:1],7x,
{8}8h[4:1],,4,2-5[8:1],5-1[8:1],2,8b,,
{16}7h[8:1],,8,8,7,,1/6,,2h[8:1],,4,4,3,,2/5,,
{16}6h[8:1],,5,5,7,,{8}4/8,1h[8:1]/2h[8:1],,{16}3,4,2,,
{16}6x,5,7,,{8}8/2-5[8:1],2,6xq3[8:1],6,4<2[16:5],4,
{4}8h[8:3],,3-8[8:1]/7-3[8:1],3b/7b,
{8}1/5>2[8:1],6,5/7,,1/5>2[8:1],6,5/7,,
{4}1/5>2[8:1],5/8<5[8:1],8/3>8[8:1],3/5-7[12:1]b,
{4}5/4-8[8:1]b,4/5-1[8:1]b,5/4-2[12:1]b,4/6,
{8}1/7<4[8:1],,8,2,3-8[8:1]*-7[8:1],4,3x,,
{8}5/6,8,1/2,4,{16}7,5,6,,3/4-8[8:1],,2,,
{4}1v6[8:1],1/7<4[8:1],7/8-3[8:1]*q5[8:1],,
{16}6,5,7,,{8}1/2,3/8,4/5,3/6,7/8,1/6,
{16}3h[16:3],,,4,2pp8[16:5],,{8}5,5,,7b,,
{8}E6,E7,E4,E3,A7,B6,A2,B3,
{4}E1,C,E5h[4:1],,
{16}2h[16:3],,,1,2,,{8}8,1/7,1/7,2/6-4[12:1],,
{8}3-7[8:1],,8-2[12:1],,4,4,3x/5x,,
{16}7h[16:3],,,8,7,,{8}1/6,2-6[8:1],,7-1[12:1],,
{8}3-5[12:1],,7-3[8:1],,1,1x,2b/8b,,
{8}5/6,,6,4,5/6,,6,4,
{4}5/6,6/7pp7[8:3],6,6,
{8}6/5h[4:1],,6,5,4/6,,1/6,,
{4}5/6,6/8,6h[4:1]/7h[4:1],,
{8}3/4,,3,5,3/4,,3,5,
{16}3/4,,,4,3,,{8}5,3/6-4[8:1],,3,,
{8}2h[4:1]/3h[4:1],,,2/3,4/1-4[8:1],,5-8[8:1],,
{4}5x/2-7[8:1],2x/6-3[8:1],6x/8x,{16}2,1,2,,
{16}8/7h[16:3],,,5h[16:3],,,{8}4,5,6,4b/8b,,
{8}5/6,3,5/6,2,5/6,1,{16}7,8,7,,
{16}1/2h[16:3],,,4h[16:3],,,{8}5,4,3,1b/5b,,
{8}3/4,6,3/4,7,3/4-8[8:1],8,2h[4:5],,
{12}1,1,1,1,,,3,3,3,3,,,
{12}8,8,8,4,4,4,7,7,7,5h[4:7],,,
{6}E6,E4,E7,E3,E8,E2,
{6}E7,E3,E6,E4f,,,
{16}2bh[16:3],,,4,3b,,{8}4,4bh[4:1],3,3,,
{16}7bh[16:3],,,5,6b,,{8}5,5bh[4:1],6,6,,
{16}2bh[16:3],,,4,3b,,{8}4,4bh[4:1],3,2-7[8:1]b,,
{4}2x/3x-6[8:1]b,3x/2x-7[8:1]b,2x/3x-6[8:1]b,2x/3x,
{8}E2h[8:5],,,,,E3,E8,,
{8}E6h[8:5],,,,,E7,E4,,
{2}1V75[8:1]/2h[8:3],3-7[8:1]/4h[8:3],
{4}4qq4[4:1]*pp4[4:1],4,,E6,
{1}8<5[2:1],
{2}5>3[4:1],7<5[4:1],
{1}1>4[2:1],
{4}4<6[4:1],,2>4[4:1],8b,
{8}6h[4:1],5,5,,6h[4:1],5,5,,
{4}3/4h[4:1],5h[4:1],6-4[8:1],,
{2}2h[4:1]/3-8[8:1],6-1[8:1]/7h[4:1],
{4}4v3[8:1]/5v6[8:1],4-8[8:1]/5-1[8:1],,2x/7x,
{4}6>3<6[8:3],2q7[8:1],,1b/8b,
{32}1x/Cf,2,3,4,5,6,7,8,1x,2,3,4,5,6,7,8,1x,2,3,4,5,6,7,8,1x,2,3,4,5,6,7,8,
{32}1x,2,3,4,5,6,7,8,1x,2,3,4,5,6,7,8,1b,,,,,,,,{4}3/5-8[8:1],
{4}5x/4-1[8:1]b,4x/5<8[8:1],5x/4>1[8:1]b,4x/6x,
{8}7/8-4[8:1],,1,2-5[8:1],6v1[8:1],2x,6b,,
{8}7/8,1/6,1/2,3/8,{16}6,5,7,,2-6[8:1]/8-6[8:1],,1,,
{4}2/8-4[8:1],8/1>3[12:1],1p4[8:1]/7-4[8:1],1x/7x,
{16}2x,1,2,,{8}8/3xp6[8:1],3,5x>7[16:5],5,1x,1x,
{16}3xh[16:3],,,4,2,,{8}7/8,2-5[8:1]/6-1[8:1],1/5,2b/6b,,
{8}3x/7x,5,3/7,5,3/7V51[16:3],,8x,,
{8}2x/6x,4,2/6,4,6/2V48[16:3]b,,1x,,
{8}7,5,6/4h[8:1],7,3/5h[8:1],2,4/6,3/7,
{16}8/2h[16:3],,,1,3pp6[8:3],,{8}7,7,,8b,,
{8}5/7,8,2/4,1,{16}7,8,7,,6/5-1[8:1],,4,,
{4}8v3[8:1],8/2>5[8:1],2/1-6[8:1]*p4[8:1],,
{16}3,4,2,,{8}7/8,1/6,4/5,3/6,1/2,3/8,
{16}6h[16:3],,,5,6,,{8}7-4[8:1],4-8[8:1],7,1b,,
{2}E3h[4:1],E5h[4:1],
{4}6,2v8[8:1],2>3-5[8:1]b/8<7-5[8:1]b,,
{16}1h[16:3],,,8,1,,{8}1,2/8,2/8,3/7>2[8:1],,
{8}4<7[8:1],,1>4[8:1],,6pp5[4:1],6,,,
{16}3h[16:3],,,4,3,,{8}3,4/5,,6/7,,
{4}1/8,2-7[8:1]/3-6[8:1],2x/3x,,
E
最終更新:2026年10月20日 15:30