アットウィキロゴ

物凄い勢いでけーねが物凄いうた〈でらっくす〉

アーティスト Halozy

BPM BASIC ADVANCED EXPERT MASTER Re:MASTER
180 3 7 10+ 13+ -

EXPERT MASTER Re:MASTER
譜面制作者 サファ太 -

BASIC


ADVANCED


EXPERT


MASTER

(180)
{8}6b,5,4,3,4b,5,6,7^2[4:1],,2^7[4:1],,4,4,5,5,6,
5,4,3,4,5,6,5,{4}4bp8v5[2:1],E6,E7,E8,{8}58,
5b/8b,,4,4,5,6,7,6^1[4:1],,1p5[4:1],,2,3,3,2,2,
34,34,5,5,46,46,7,{4}7-2[8:1]b,3b-6[8:1],7bhx[4:1],{24}8x,1x,2x,{4}3x-6^8-3[8:5]*-8^6-3[8:5],{1}A3f,

{16}3,4,3,,7,,1,,6,5,6,,2,,8,,3,4,3,,2,,48,,7,5,6,4,5,,2,,
2,1,2,,6,,4,,7,8,7,,3,,5,,2,1,2,,6,,4,,3bx,5bx,3bx,5bx,{4}2bx^3-5[4:1]b*^1-7[4:1]b,
A2f/B2,,{16}6,5,6,,2,,8,,3,4,3,,7,,15,,2,4,3,5,4,,38,,
2,1,2,1,2,,4,,7,8,7,8,7,,16,,2,5,2,5,4,7,4,7h[16:5],,,8b,,{4}2b<6[4:1]b,

6,4,15,2>6[4:1]b,6,8,47,25,3h[4:1]/4,2h[4:1],1h[4:1],2,A3/D3/D4/E3/A7/D7/D8/E8,45,A6/D7/D6/E7/A2/D3/D2/E2,45,
2p6[4:1]/8,6p2[4:1],1,6q2[4:1],2q6[4:1],4,8,2/6<6[4:3]b,{1}Cf,{4}A6/A7/D6/D7,B5/B6/B7,B4/B3/B2,A3/A2/D4/D3,

5-1[8:1],1-5[8:1],5-1[8:1],{8}1-5[8:1],3x,{4}5-1[8:1],1-5[8:1],5,{8}46,35,
{4}2-6[8:1]/4,6-2[8:1],{8}4,4,{4}4-7[8:1],4-1[8:1],4-8[8:1],4,17,
{8}1^6[8:1]/2,3,4,4,5^2[8:1],6,7,7, 8^1-3[8:1],7,6,5^6-8[8:1],4,3,2v5^3v6[8:5]*qq7[8:5],,
{1}A2f,{4}B6f/A5h[8:1]/B5h[8:1]/D6h[8:1]/E6h[8:1],D3f/A3h[8:1]/B3h[8:1]/D4h[8:1]/E4h[8:1],
A7f/A6h[8:1]/B6h[8:1]/D7h[8:1]/E7h[8:1],D2f/A2h[8:1]/B2h[8:1]/D3h[8:1]/E3h[8:1],

7b<3[4:1],,{24}1h[6:1],,,,2h[24:5],,,,,3,,,
{8}3V17[4:1],,6,6,,5,4/6V82[4:1],,5,,3,3,,4,3qq8[2:1]/5,,E5f,,,7,7h[4:1],,8,1,
{2}2h[2:1],{24}4,,,,46,,,,,7,,,{8}7-1[8:1],,5,5^2[8:1],,1,1,,
2/8-5q4[2:1],,3,3,,1,1,,2b/5bx,6,5b/7bx,2,1b/3bx,7,{4}6bx-2[8:1]/8b,
3bhx[4:3],,,{24}2x,1x,8x,7x,6x,5x,

{8}4bxv7[8:1]b,,2^8[8:1],2,5xpp7[8:1],5,3x-8[8:1],3x,4xv6[8:1],4,2^7[8:1],2,4x,4,5x,6x,
{4}7-2[8:1]/8-2[8:1],7b-5[8:1]/8b-5[8:1],7b/8bw4[8:1],8b,{16}2bx/6bx,,7,8,6b,,2,1,3b,,17,,{4}2^5[8:1]/6^1[8:1],
2p6[8:1]/6p2[8:1],26,B2/B6/Cf,8V24[4:1]*V64[4:1],,,2b/6b,3>5[4:1],
35,4-8[8:1],{16}34,,,2,,,8,,{24}17,,,1bx/7bx,6x,5x,4bx,,,82,,,8bx/2bx,3x,4x,5bx,,,{4}1b/7b,

{16}2,1,2,1,3,8,4,7,5,6,5,6,5,4,3,2,7,8,7,8,6,1,5,2,4,3,4,3,4,5,6,7,
{8}4x-8[8:1]/8x,,4b/6-1[8:1]b,5,2-6[8:1]b/6b,3,{4}2b/4w8[8:1]b,A4f/D4/D5,,{8}17,6,28,3,
{4}1-5[8:1]/2-5[8:1],12,{16}7^4[8:1]/8,,,1,7,,2,,{4}3-7[8:1]*-8[8:1],3,5-1[8:1]/6-2[8:1],56,
{16}3b/8b,,7,5,6b,,2,4,3b,,6,5,7b,4,8,3,{4}1bh[4:3],,,2w6[8:1]b,

2b,,{16}6,5,7,4,{8}8-6[8:1],8-2[8:1],{4}8-4[8:1]b,,A3/B3/D3/D4/E3/E4/A5/B5/D5/D6f/E5/E6,26,
{16}6,5,7,4,8,,12,,3,4,2,5,{8}1-3[8:1],1-7[8:1],{4}1-5[8:1]b,,A6/B6/D7/D6/E7/E6/A4/B4/D5/D4f/E5/E4,73,
{16}2,1,3,8,2,,45,,7,8,6,1,{8}7-5[8:1],7-1[8:1],{4}7-3[8:1]b,,A5/A6f/B5/B6/D6/E6/A1/A8/B1/B8/D1/E1,24,
{16}3,4,2,5,1,,87,,6,5,7,4,8,,12,,
{8}3bhx[16:1]/8bhx[16:1],3bhx[16:1]/8bhx[16:1],5bhx[16:1]/6bhx[16:1],2bhx[16:1]/4bhx[16:1],
{4}1bx-4[8:1]b/5bx-8[8:1]b,1b/5b,

{16}2,1,3,8,4,,56,,7,8,6,1,{8}5-7[8:1],5-3[8:1],{4}5-1[8:1]b,,A2f/A3/B2/B3/D3/E3/A7/A8/B7/B8/D8/E8,46,
{16}6,5,7,4,8,,12,,2,1,3,8,{4}4x-1[8:1]*-2[8:1],4bx-6[8:1]*-7[8:1],4bx>6[4:1]b*p6[4:1]b,A4f/B4/D4/D5/E4/E5,,
{16}7,8,6,1,4,,35,,2,1,3,8,{8}5-3[8:1],5-7[8:1],{4}5-1[8:1]b,,A3/B3/D3/D4/E3/E4/A7/B7/D7/D8f/E7/E8,{16}18,,18,,
2,1,3,8,5,,46,,7bx,8bx,6bx,1bx,4bx,,34,,5,2,4,3,6,5,7,4h[16:3],,,8,,{4}2>6V42[2:3]/6<2V86[2:3]b,
{1}A2f/B2/D2/D3/E2/E3/A6/B6/D6/D7/E6/E7,,,,E

Re:MASTER


  • MASTER譜面を追加しました。修正等ありましたらよろしくお願いします。 -- けもがみ (2026-09-24 18:42:08)
名前:
コメント:

タグ:

+ タグ編集
  • タグ:
最終更新:2026年09月24日 18:42