アットウィキロゴ

MissionDistortion

アーティスト Nor

BPM BASIC ADVANCED EXPERT MASTER Re:MASTER
110 3 6 12+ 13+ -

EXPERT MASTER Re:MASTER
譜面制作者 カマボコ君 はっぴー & サファ太 -

BASIC


ADVANCED


EXPERT


MASTER

(110){1},
{4},
{16}3b>7[2:1],,4,,5h[16:1],,,5h[16:1],,,5h[16:1],,,5h[16:1],,,6,,6,,5h[16:1],,,5h[16:1],,,5h[16:1],,,5h[16:1],,,
{16}6b<2[2:1],,5,,4h[16:1],,,4h[16:1],,,4h[16:1],,,4h[16:1],,,3,,3,,4h[16:1],,,4h[16:1],,,4h[16:1],,,3h[16:1]/5h[16:1],,,
{16}2b>6[8:3],,1,,8h[16:1],,,8h[16:1],,,7h[16:1],,,6h[16:1]/8h[16:1],,,7<3[8:3],,8,,1h[16:1],,,1h[16:1],,,2h[16:1],,,1h[16:1]/3h[16:1],,,
{16}8b/2b-5V38[2:1],,,,7h[16:1],,,7h[16:1],,,6h[16:1],,,6h[16:1],,,B1/B2/E2,,7,8,,8,6,,6v1[8:1]*v3[8:1],5/7,,,6x<6[2:1]*>6[2:1],,,,
{4}A6f,,,5x<5[2:1]*>5[2:1],A5f,,,3x>3[2:1]*<3[2:1],
{4}A3f,,,1x>1[2:1]*<1[2:1],A1f,,,1/8<4[4:1],
{8}2/A8f,2,3,3,{16}3/4,4,2,,{8}5/1>5[4:1],,7/A1f,7,6,6,{16}5/6,5,7,,4/8V64[4:1],,,,
{8}3/A8f,3,2,2,{32}E3,B3,B4,E5,A5,,,,{8}7<3[4:1],8,3b<3[2:1]b,,,,Cf,,,,
{16}4b/8b,,5/7,7/5-2[8:1],,{8}4/6<1[8:1],,,2>5[8:1],1-6[8:1],,,5-1[8:1],6-8[8:1],,,{16}1x,1x,,2,4,
{16}3,,2/4,2/4-7[8:1],,{8}5/3>8[8:1],,,7<4[8:1],8-3[8:1],,,4-8[8:1],3-1[8:1],,,{16}7,7,6,5,4,
{16}3b/5b,,2,2-6-2[4:1],4,,5,5,,7,,8-4-8[4:1],8,,1,1,,2,,3-8-3[4:1],3,,7,7,,5,,6,6h[8:1],,4,4,
{16},3bx/5bx,,2<7>2[4:1],2,4,,5,,4,,6>3<6[4:1],6,,1,1,,2,,1,,8,8,,7x-3[8:1]/8x-4[8:1],6,6,6,7b/8b,,,,
{16}2b/5b,,4,5<8-4[4:1],6,5,4,3h[8:1],,,,1,,2v5-3[4:1],2,2,,1,,8,,6v1-7[4:1],6,6,,5,,4,,3,3,3,
{8}4b/8b-2[8:1],7,6-8[8:1],5,4-6[8:1],3,2-4[8:1],1,8-2[8:1],7,6-8[8:1],5,4h[4:1],,{16}1,1,2,3,
{16}4b,,5,4>1-5[4:1],3,4,5,6h[8:1],,,,8,,7v4-6[4:1],7,7,,8,,1,,3v8-2[4:1],3,3,,4,,6,,5,5,5,
{8}4b/1b-7[8:1],2,3-1[8:1],4,5-3[8:1],6,7<5-1[4:1],8,1b-5>3[4:1],2,3V15[4:1]b*V16[4:1]b,,,,,,
{8}5-8p4[2:1],E6h[8:5],,,,,,,4-1q5[2:1],E4h[8:5],,,,,,,
{8}5-1v6[2:1],E5h[8:5],,,,,,,6-2v4[2:1],E6h[8:5],,,,,,,
{8}4-1[8:1],E4hf[8:5],,,E7h[4:1],,,,5-8[8:1],E6hf[8:5],,,E3h[4:1],,,,
{8}A2/B2,A3/B3,A4/B4,A5/B5,{32}A6/B6,B4,B3,E3,A7/B7/A2hf[8:3],,,,{16}8xz4z8[2:1],8x,8x,8x,{2},{8}3hbx[4:1],,8b-4[16:1]b,4,
{16}5b/8b,,,,3,3qq1[8:1]*v5[8:1],,{32}2,3,4,,,,,,,,,,6-3[8:1]*v1[8:1],,,,7,6,5,,{4},{16}4,4h[24:5],,{12}A1f/B1/D2/E2,A6f/B6/D7/E7,A3f/B3/D3/E3,{8}A8f/B8/D8/E8/4x-8V61[8:3]b,2b,
{8}1,2-6[16:1],4,A2f,8b,4b/6b,3bv8[8:1],2/4v7[8:1]b,3b,4b,{16}1,1,8,8,7b/5<8[8:1]*-1-4[4:1],,{8}4b/6,5b,,
{4}8hx[8:1],{12}5/7h[12:1],,5,6h[12:1],{24}4,4,,,{12}3/5h[12:1],,3,2/4h[12:1],1bx,,1/3h[12:1],,1,8/1-4[8:1]b,1,1,{8}1b/5-1V38[8:3]b,7x,
{8}6,7-3[16:1],5,A7f,1b,7b,B5/E5/E6,7h[8:1],{48}A8f,D1,A1,D2,A2,D3h[12:1],,,,D7f,A6,D6,A5,D5,A4h[12:1],,,,A7f,B7,C,B3,A3,,,,,{16}1,1,1,8b/2b>6[16:1],,1b,,
{16}2b/7,,8,8-3[8:1]b*V64V68[4:1],,{8}7,,,2,{16}4-7[8:1]b*V28V24[4:1],4,4,,,,,,6,6,6,,1b,,3/5,3/5>2[8:1]b,,6,6,
{8}5b-1[8:1],7-3[8:1],5/8,7,2-5[8:1],1/8-5[8:1],2,8,3b-8[8:1],1/7-4[8:1],3,7,1b,{16}2/4-8[16:1],3/5,4/6,,3b/4b,,
{16}2x,,1,1-3[8:1]b*V75V71[4:1],,{8}2,,,4,{16}5-7[8:1]b*V31V35[4:1],5,5,,,,,,6,6,6,,4,,2/8,8/2>5[8:1]b,,1,1,
{8}2b-6[8:1],8-4[8:1],1/2,8,5-1[8:1],4/3-7[8:1],5>6<5[8:5],3,5b,,,,,,{16}8v3[8:1]*v5[8:1],1/7,1/7,1/7,
{16}8b,,,,6,5-8[8:1],4,3h[8:1],,A5,,,3,4-1[8:1],5,6h[8:1],,A4,,,7,8,1,2h[8:1],,4q1[8:1],,3,3,3,3,4,
E

Re:MASTER


名前:
コメント:

タグ:

+ タグ編集
  • タグ:
最終更新:2026年09月18日 01:24