BASIC
ADVANCED
EXPERT
(195){1},
{1}3h[1:7]/8-4[4:3],,
{1}4>1[4:3],,
{1}1-5-1b[4:7],,,
{1}1<6[2:1]*>4[2:1],
(185){2}5xh[2:1],6h[2:1],
(175){2}7h[2:1],8h[2:1],
(165){2}1h[2:1],(155)2h[2:1],
(140){2}3h[2:1],(130)4h[2:1],
(125){1}3>6[4:3],
{1}4q5[4:3],
{32}A7,E7,{16},,,{4},,,
(155){1}3h[2:1]/6h[2:1],
(205){8}1bxh[2:1]/2bxh[2:1],{4},,,3/8,
{8}3/8,,,6,6,5,7xh[8:3],,,
{8}5,,4/6,4/6,,7bxh[4:1],,5bxh[4:1],,
{8}3bx,3,,2/4,2-5[4:1]/4,,,,,
{8}6,6,,7bx/8bx,,1bx/2bx,,3,
{8}3,,2/4,2/4,,1/8,1/8,,
{8}5/6,5/6<3b[8:5],,{1}C1,
{8}2xh[8:23],,,{2}4,4,
{2}3,3,
{8}4,,,,4,4,,3/5,,
{8}4/6,,5/7,,6,6,,4/7h[2:1],,,,
{4}5,4/6,3h[2:1]/5,,
{4}4,4/5,5/6,5/6,
{8}4/7,,4h[4:1]/7h[4:1],,,,5,5,,
{8}4/6h[8:29],,,,,5,{4}5<8[4:1],,,
{8}1,,1,,8,,7x,7x>2-6>3[1:1],{2},,,
{8}2bx/5bxh[8:5],,,3,,4,,5/6,,
{8}7/8,,7/8,,1/6,,2/8,2bxh[8:9]/8bxV63[8:5],{1},
{4}C1hf[16:7],,,{8},1bx/8bx,,,
{4}2h[8:1],2h[8:1],2h[8:1],3h[8:1]/4h[8:1],
{4}3h[8:1]/4h[8:1],2h[8:1]/3h[8:1],2h[8:1]/3h[8:1],1h[8:1]/2h[8:1],
{4}1h[8:1]/2h[8:1],7h[8:1]/8h[8:1],7h[8:1]/8h[8:1],6h[8:1]/7h[8:1],
{16}6h[8:1]/7h[8:1],,,,5bx/6bx,,,5bx/6bx,,,{2}4bx/7bx-4[4:1],
{8}1,1,,2/4,2-5[4:1]/4,,,,
{8}8,8,,5/7,5/7,,4,4,,
{8}1x/3x,1xw5[8:3]/3x,{1},
{4}2/5,1b/6b,1-7[8:1]/6-4[8:1],,
{2}3-5[8:1]/8-2[8:1],1-7[8:1]/6-4[8:1],
{4}3/8,3x/8x,{16}7h[16:3],,,5h[16:3],,,6x,,
{16}6h[16:3],,,3h[16:3],,,4h[16:3],,,2h[16:3],,,5x,,,3x/6x,,,
{8}4bx/7bx,,,{2}3x-5[8:1]/8x-3[8:1],1-6[8:1]/6-4[8:1],
{4}3-5[8:1]/8-3[8:1],,1/6,1/6,
{16}2h[16:3],,,4h[16:3],,,1,,{2}1v6[4:1],
{16}7h[4:1],,,,8bx,,,1bx/6bx,,,2bx/5bx,,2bx/5bx,,,,
{4}3/4,3/4,1/2,7/8,
{8}5/6,,4/7,,3/8,3b/8b,,7,
{8}7-4[8:1],,,1,1>4[8:1],,,6,
{8}6-1[8:1],,,3bxh[4:1],,8bx,,,
{16}6x,5x,,4x/7x,,,,,3x,4x,,2x/5x,,,,,
{16}8x,1x,,2x/7x-3[16:3],,,{4},B1/B2/E2f,,
{2}B4/B5/E5f,{1}B7/B8/E8f,
{4}2h[1:2],,1,1>5[2:1],,,,,
{4}5h[1:2],,,3>7[2:1],,,,,
{8}6h[8:17],,,,7,,7q4[2:1],,,{1},
{2}5h[2:1],4h[2:1],
{8}3h[2:1],,,,2<8[4:1],,,{1}E6h[1:1],
{4}B8/E8,,E1,C1,
{1}E5h[1:1],
{8}C1,,,,,1,,1,,
{2}1h[4:1]/2h[4:1],2h[4:1]/3h[4:1],
{2}3h[4:1]/4h[4:1],4h[4:1]/5h[4:1],
{2}5h[4:1]/6h[4:1],6h[4:1]/7h[4:1],
{2}7<4[4:1]/8,1b,
{8}2/4,,3,3,4,,3/5,,
{8}2,2,4,,3/5,,4/6,,
{8}4/6,,7,7,5,,4/6,,
{8}3,3,5,,{1}2>4[8:3]/4<6[8:3],
{1}5-3[8:3]/7-5[8:3],
{4}3,2/4,6,5/7,
{4}2,3/4,7,5/6,
{4}3/4,,2h[2:3],4,
{4}4,,3,3,
{4}4,3/5,6h[2:3],4,
{4}4,,5,5,
{4}4,4/6,5/6,5/6,
{4}7/8,7/8,1/2,1/2,
{8}3/4,,2/5,{2}2bxh[4:1]/5bxh[4:1],5bxh[4:1]/7bxh[4:1],
{8}2bxh[4:1]/3bxh[4:1],,,,A7/A8/B7/B8/D7/D8/E7/E8f,,,,,
{1}1bxV35[4:3],
{4}6h[1:1],,5,5,
{2}8>3[4:1],7<4[4:1],
{8}3,,5b/6b,,7b/8b,7b-4[8:1]/8b-4[8:1],,,,
{8}3/5,3/5,,2,2,4,1,,
{8}6/8,,2/4,,5q4[2:1]/6<3[2:1],{1},
{8}1/8,,7,7,5,5,6,6,
{8}2,2h[4:1],,1,1/2-5[8:1],,,,
{8}6,6,,7/8,7-4[8:1]/8,,,,
{8}3,3,,1/2,1-5[8:1]/2-4[8:1],,,,
{8}7/8,7-5[8:1]/8-4[8:1],,,,3bx,3bx,,
{8}2/6,2>5[4:1]/6,,,,,E7f,,,
{4}8h[4:1],6h[4:1],4h[4:1],2h[4:1],
{8}8,,4x/6x,{4}4x/6x,3x/7x-2-6-3[4:3],,,,,
{8}1bx/2bx,1bx/2bx,,7,7-5[8:1],,8-4[8:1],,
{4}7,2-4[8:1],1-5[8:1],2,
{4}3/6,7-4[8:1],8-3[8:1],6-1[8:1],
{8}4,,3,3,8,8,4,4,
{8}5/7,5/7,,6,6-1[8:1],,5-2[8:1],,
{8}8,8<5[8:1],,1,1>4[8:1],,8,,
{8}5/7,5b/7b,,6,6,1,8,2xh[4:1],,
{8}1b,,7b/8b,7b/8b,1bx-4b[8:1]/6bx-1b[8:1],,,,
{8}3x>5p4[8:31]/8xh[8:33],
(221){1},
(197){1},
(190){1},
(165){1},
(175){16},,,,E7,E6,E5,E4,{2}E3h[2:1],
(135){16},,,,B6,B5,B4,B3h[16:9],{2},
(108){8},,,{24}E5,E4,E3,E2,{4}E1h[24:35],
{24},,,,,C1h[1:1],
{1},,,E
MASTER
(195){1},
{8}3h[8:3],,,5,5,,4/6h[12:5],,,{24},{6}5,45,{4}34,35,
{8}4h[8:3],,,6,,6,5,4/6h[4:1],,5,4,6,5,4h[4:1],,6h[8:3],
,,5,,6,5,4,3h[8:3],,,4,4,3,5h[4:1],,4,
{2}4/6h[8:5],{8},4,3/5pp8[8:5],{4},,,1hx[296:189],{8},
(185){2}8hx[4:1],7h[4:1]/8h[4:1],(175)6h[2:1]/7,{4}5,56,
(165)45,34,(155)23,1<4<1[728:837],(140){2}1h[2:1],(130),(125){1}2qq4qq5[4:7],5pp5[4:3],,
(155){2}2h[2:1],E1hf[2:1],
(205){24}2bx,3x,4x,{8}5x,,,47,4/7-3[8:1],,B5f/E6,,B1/E2f,,,78,7-4[8:1]/8,,1b,
,,{16}3,4,3,,6,5,{8}7,12,1bhx[8:1]/2bhx[8:1],
,1bhx[8:1]/8bhx[8:1],,78,{24}7x/8x,6x,5x,4x,3x,2x,1x,8x,7x,6x,E5f,,
{8},,2bhx[4:1],,1,{4}3^8^3[2:1]/8,6bx,4bx,{8}8,8-6^4[16:5],,2,2bh[8:3],
,,3h[4:1],,{16}1,4,2,5,3,6,{1}4bxpp5[2:1]/7bxpp1[16:7],{8}4b/8b,
,,7,7,5,{4}6^1[4:1],5^2[4:1],,8,7^4[4:1],{8}8,
,,2,2,4,{4}3h[4:1],1h[4:1],8h[4:1],6,{16}7,5,7,5,{8}7h[4:1],
,4,4h[4:1],,B4h[8:7],{4},3,3,2,1>5[8:3],{8}B6/E6,
,7,7h[4:1],,A5/E5,,8,8hx[4:1],,,1,1,,24,,3/5V37[2:1],
,,2,,1,{4}1<3[4:3],7,,8,6-3[4:1],{8}2,
,1,1h[4:1],,3,{4}3h[4:1],4h[4:1],6h[4:1],7h[4:1],8,{8}2hx[8:13]/8x,
{4},1,1,3,1,1,{8}4,3^6[8:1]/5,,8bxV27-3-6-4[4:5]b,
{1},{4},{16}1bx,,,E3hf[16:7],{8},,,8b,
{4},1h[8:1]/7h[8:1],1h[8:1]/7h[8:1],6h[8:1]/8-4-8[8:5],6h[8:1],6h[8:1],7h[8:1],{16}7h[8:1],,1,1,
7h[8:1],,,,7h[8:1],,8,8,{4}6h[8:1],57,{16}6,4,6,4,7,5,7,5,8bhx[8:1],,,1bhx[8:1]/7bhx[8:1],,,{8}2b/6b,
,{24}4,5,3,{8}4,2x/5,2x-5[8:1]/5,,1,7b^4[8:1],,8,3-8[8:1],,4x,,15,1b/5b,
{16},2,3,4,5,6,7,8,{24}1/7x,6x,5x,{8}4x,1x^6[8:3],2xv5[4:1],{4},,,5-1[8:1]/6-2[8:1],
5b/6b,{16}38,,7-4[8:1],4,,4,7,,1,,2-5[8:1],5,,5,2,,7,,6-1[8:1],4,,4,6,,2bx,,8x,8x,
,,37,,37,,4,6,,6,2,,2,4,,1bx/5bx,
,,7bhx[8:1]/8bhx[8:1],,,1bhx[8:1]/2bhx[8:1],,,4bhx[8:1]/5bhx[8:1],,,45,,,{8}1b/8b,
,26,26,{16}7-4[8:1],8,,8,7,,1,,2-5[8:1],4,,4,2,,7,,6-1[8:1],4,,4,6,,2bx,2x,,8hx[16:3],
{4},{16}38,,2,1,,7,8,,1h[8:1]/6h[8:1],,,3h[8:1]/4h[8:1],,,5b/7b,,,,1x/8x,,2,1,3,8,4,7,{8}5h[8:3],
,,7,{24}7,6x,5x,{8}4hx[8:3],,6,{24}6,5x,4x,{2}3x>6[8:3],{8}4,4,4,2b/6b,
,1/2-6[8:1]b,1/2h[16:3],,,5-1[8:1]b/7,5h[16:3]/7,,,2^7[8:1]b/4,2h[16:3]/4,,,5,46,2b/8b,
,,{16}7^4[8:1],8,,7h[16:3],{4},{16}2-6[8:1],1,,2h[16:3],
{4},{16}7,8,,{24}7x/8x,6x,5x,4x,3x,2x,1x,8x,7x,6x,{48}5x,{32}1bx/4hx[8:3],E2f,B2,B3,
{8}E4,,,{32}1b/6h[8:3],E1f,B8,B7,{8}E7,,,{32}1bpp1[32:17]*qq1[32:17]/5,B1f,C,B5,{4},,,{8},2/8h[2:1],
,,,4,4h[8:3],,,{2}6h[1:1],{8}5,,7,,8h[8:5],
,,7,,6,6h[4:1],,5h[4:1],,4,4,3,,24,,3h[4:1],
,5,5,4,3,{4}2h[4:1]/4,5h[8:5],,{8}1,{6}1,2x/4x,3x/4x,
{2}4hx[4:1]/5x,5h[4:1]/8h[4:1],{8}4h[4:1]/7h[4:1],,,{16}6,5,6,,4-8[8:1]b/5,,{4},
,{16}17,2,3,4,5,6,7,8,1,2,{4}3h[4:1],1h[4:3],,,{8},
,{16}12,8,7,6,5,4,3,2,1,8,7,6,5h[4:1],,,,3h[8:5],,{4},,,
2h[4:1]/4,3h[4:1],4h[4:1],5h[4:1],6h[16:3],7h[4:1],8h[4:1],7h[16:3],
6h[4:1],5h[16:3],4h[4:1],3h[16:3],2/4h[2:1],,{24}3b,E3,,,,,{4},
46,{8}6,6,5,5,7h[4:1],,8,8,6,6,{4}5,46,35,{8}3,3,4,3,2,1,
,28,28,,1,2,3,5,5,,46,,6,5,4,3h[4:1],
,4,5,6,5,4,3,3>5<3[4:5],,4,4,,3,3,,4,
,5,,4,,35,35,,46,,5,{16}5,4,{8}3,3^8[8:3],,4,
,{4}5,6h[4:1],8h[4:1],7^4[8:3],{16},,8,,8,1,{8}2,2,,3h[4:1],
,{16}5,6,7,,7,,18,,1,2,3,4,5,,{4}E8,E7,E6,E5,
C/E4,E3,E2,{8}E1,A1/A8/B1/B8/D1f,,,E3,A3/A2/B3/B2/D3f,,,E7,A6/A7/B6/B7/D7f,
,,E5,A4/A5/B4/B5/D5f,,,{16}3-8[8:1]/6-1[8:1],27,18,,
{1}3bx/6bx,,{2}78,12,{4}1/7h[4:1],{32}1,8,7,6,5,4,3,2,{8}1bx,7xz3[8:1]/8xs4[8:1],,7bx/8bx,
,,25,16,{16}7,8,6-1[8:1],8,{8}7,1/6bx-4[8:1]b,
,2^8[8:1]/6,3,7-4[8:1],6,2,,{24}3,5,3,{4}5-2[8:1],5-8[8:1]/6,3/5-1[8:1],57,
{16}2,8,1,7,3,5,4,6,5,,{4}3b-8[8:1]/8bx-5[8:1],3b/8b,{16}1,4,2,5,3,6,4,7,5,6,4,7,3,8,
2,3,4,5,3,4,5,6,4,5,6,7,{8}1x,2x-6[8:1]/8x,,1,7-3-5[4:1],,8,8-2[8:1]b,,6/8b-6[8:1]b,
,3/8b-4[8:1]b,,4b/8b,,{24}3,5,3,{8}5,2/6p1[8:3],{4},1^3[4:1],3q8^6[8:5],{8}1,1,
,3,,5-1[8:1],,7,7,28,,17,17,17,{16}6,2,6,2,6,3,6,4,
6,5,6,7,6,8,6,1,6,2,{8}6,3b/5b,1b/7b-3[8:1]b,,8^3[8:1],8,{24}4,5,6,{8}7-4[8:1],,4,2b-6[8:1]b,
,1^6[8:1],1,{24}5,4,3,{8}2-5[8:1],,5,7hx[4:1],,{16}8,6,8,6,8,6,{24}8x,1,2,7x,6,5,1x,2,3,6x,5,4,
{8}1b,1,{24}2,4,2,4,,,18,,,7,5,7,{8}5,2bx-6[8:1]b/4bx,
,1^7[8:1],1,{24}5,4,3,{4}2-5[8:1]b,{24}5,6,7,{8}8b-4[8:1]b,
,{24}4,3,2,1h[8:1],,,5,6,7,{8}8^5[8:1],2x,3,3,{16}4x,6,4,6,5,7,4,8,3,1,2,8,1,7,8,6,
1,5,1,5,2,6,2,6,{32}2b,3,4,5,8b,7,6,5,1b,2,3,4,{48}5bx<5>5[8:29]b/A8,B8,Cf,B4,,,
(221){1},(197),(190),(165),
(175){4}6h[1:1],{16}5,4,3,2,1,8,,,{4},(135)5h[1:1],{16}4,3,2,1,{2},
(108){8}8h[24:13],,,{24}6,5,4,3,2qq3[24:29],,{4},{16}6,5,{1}4pp3[4:3],,,,E
Re:MASTER
- MASTER譜面を追加しました。修正等ありましたらよろしくお願いします。 -- けもがみ (2026-09-27 03:54:02)
最終更新:2026年09月27日 13:59