BASIC
ADVANCED
EXPERT
MASTER
(210)
{1}E1h[1:1]/E2h[1:1]/E8h[1:1],{4},4x-2[8:1]/5x-7[8:1],,18,
{16}8,1,,1,{8}7,7,8,7,16,8,7,8,16,7,8,7,16,,2,1,38,1,2,1,38,2,1,2,38,1,2-6[8:1],1,1,,
8,7,16,8,7,8,16,7,8,7,16,8,7,8,16,,78,78,18,18,12,12,34,,{16}3,4,3,,45,,6,5,{8}6,47,4b-8[8:1]/7b,,
6h[4:1],,7,{4}7-1[8:1],7-4[8:1],7,{8}3,3,1,2h[4:1],,1,8,
7,{4}6h[4:1]/8,7-1[8:1],7-4[8:1],7,{8}25,{4}2-4[8:1]/5-1[8:1],,3b/7b,
5h[8:1]/6h[8:1],5h[8:1]/6h[8:1],3h[8:1]/4h[8:1],3h[8:1]/4h[8:1],
1h[8:1]/2h[8:1],{16}34,,6,5,{4}6-1[8:1]*-3[8:1],,
4h[8:1]/8h[8:1],3h[8:1]/7h[8:1],2h[8:1]/6h[8:1],{16}3,5,3,5,4qq6[2:1],,,6x,,,7hx[8:3],,{4},,
5x-2[8:1]/6x-1[8:1],5b/6b,38,2^5[4:1],5p8[4:1],7h[4:1],,{8}6-8[8:1],6,
2-4[8:1],2,1-5[8:1],1,3h[4:1],,4,,34,45,{4}5-1[8:1]/6-8[8:1],56,3x/7x,
1h[8:1]/2h[8:1],5h[8:1]/7h[8:1],2h[8:1]/4h[8:1],5h[8:1]/6h[8:1],
7h[8:1]/8h[8:1],1h[8:1]/2h[8:1],3h[8:1]/4h[8:1],34,
{8}12,12,38,38,{16}7,4,7,4,6,5,6,5,E7,E8,E1,E2,E3,E4,E5,E6,{4}Cf,,
2pp5[2:3],7^1[8:1],7,,1,8^6[8:1],8,,6qq3[2:3],1^7[8:1],1,,7,8^2[8:1],8,,
{2}2h[4:1]/5-1[8:1],{8}3/6-8[8:1],3,1,,{2}7h[4:1]/4-8[8:1],{8}6/3-1[8:1],6,8,,
{2}7h[4:1]/2-6[8:1],{8}5-1[8:1]/8,8,6,,25,3,48,7,{2}2b/6b,
{8}5,5h[8:1],6,6h[8:1],7,7h[8:1],8,8h[8:1],1,1h[8:1],2,2h[8:1],3,3h[8:1],4,4h[8:1],
5,5h[8:1],7,7h[8:1],1,1h[8:1],3,3h[8:1],{16}5,6,7,8,1,2,3,4,{4}1b/5b,2-7[8:1],
6b-3[8:1],{8}2-7[8:1],2,{4}6-3[8:1],2-7[8:1],6-3[8:1],2,{8}5,5,16,{16}7,8,
{4}7-2[8:1],{8}3-6[8:1],3,{4}7-2[8:1],3-6[8:1],7-2[8:1],3v6[8:1]*-8[8:1],,15,
2/4-7[8:1],{8}8-3[8:1],8,{4}4-7[8:1],8-4[8:1],4b^1[8:1]*^7[8:1],,{8}28,37,46,5,
{4}3-7[8:1]*-8[8:1],3,6-2[8:1]*-1[8:1],6,B3h[2:1],B6h[4:1],E5f,,
{8}12,3,45,6,78,1,28,,17,6,45,3,12,8,78,,12,12,38,38,47,47,56,56,{16}3,4,2,5,1,6,8,7,{2}Cf,
{1}1b/8b,,,,1V74-8[4:5]/5h[2:3],,{2}1h[4:1],2h[4:1]/8h[4:1],{4},3-8[8:1]b/7-4[8:1]b,3b/7b,,
6h[4:1],E5,{8}6,5,{4}4,3h[4:1],E5,{8}3,4,{4}5,7h[4:1],E6,{8}6,5,4,,3,3,4,2h[4:1],,4,{4}1b/5b,
3-1[8:1]b,4,{8}2-8[8:1]b,2,{4}4,6-8[8:1]b,5,{8}7-1[8:1]b,7,{4}5,
3-1[8:1]b,4,{8}2-8[8:1]b,2,4,,{1}7<1[2:1]*qq8[2:1],
{4}2h[2:3],E1,E2,E3,E4,E5,E6,46,7h[2:3],E1,E8,E7,E6,E5,E4,E5f/E6,
2^5[2:1],E4,B2,E1,7x^4[2:1],E6,B7,E1,3x/4x,3/4h[4:3],,,3bh,2bh,1bh,1<4[8:3],
Cf,,,{8}6xv4-1[2:1],6x-1[8:3],{4},,,3x-8V26[2:1]/8x-3V16[2:1],
,,,4-1-6[2:1],7x-3[4:1],,,2x-8^7-5[8:3]/8x-2^3-5[8:3],
,,{8},1xv2^5[8:5]b*v8^5[8:5]b,{1},{8}7xpp8-5-3[2:1],7x,
{2},A1/A2/D2f,{4}8-4[8:1],4w8[8:1],Cf,,
6h[4:1],{8}5,5,{4}6,45,3h[4:1],{8}4,4,{4}3,54,
{8}46,6,35,3,24,4,15,,{16}2,4,2,4,3,5,3,5,4,6,4,6,{4}5,
{1}4b/8b,{8}7,56,,2,3/4-8[8:1],,1b,,
{16}12,,3,4,{8}3,25,6-8[8:1],1q5[8:1],6,1,7-5[8:1],3-1[8:1],7-3[8:1],3,7,2,12,,
{16}87,,6,5,{8}6,74,3-1[8:1],8p4[8:1],3,8,2-4[8:1],6-8[8:1],2-6[8:1],6,2,7,87,,
15,{16}2,4,{8}3bx,56,7-5[8:1],4-8[8:1],7bx,4,6-4[8:1],1-3[8:1],6bx-1[8:1],1,6,2,{4}2bx/8bx,
1h[8:1]/7h[8:1],{16}5x/6x,,6,5,{8}7,48,{4}4bx^1[8:1]/8bx^5[8:1],
4xq8[8:1]/8xq4[8:1],4x^1[8:1]/8x^5[8:1],,2x/6x,
{8}48,7v5[8:1],5V71[16:3],7,4,3,2-6[8:1],,1-7[8:1],1,3-5[8:1],3,8,8,47,,
35,2v4[8:1],4V28[16:3],2,5,6,7-3[8:1],,8-2[8:1],8,6-4[8:1],6,1,1,52,,
46,7qq5[8:1],5V71[4:1],7,4,3,2-5[8:1],,1-6[8:1],1,3-8[8:1],3,4,4,15,,
7h[8:1]/8h[8:1],,56,45,{2}3-1[8:1]/4-8[8:1],{8}27,36,45,45,,56,{4}4b>6[4:1]/7,
4x/B6/E6/E7f,4bx<2[4:1],4x/B2/E2/E3f,4b>6[4:1],4x/B6/E6/E7f,4b<2[4:1]b,4/B2/E2/E3f,4b>6[4:1]b,
4/B6/E6/E7f,4b<2[4:1]b,4/B2/E2/E3f,4bw8[8:1],4,2b/6b,{48}7,E7,B6,B5,E5,,1,E2,B2,B3,E4,,{8}8b,,
18,{16}7,8,{8}7,56,3h[8:1],5,2h[8:1],4,18,7,26,3,47,56,{4}4/8-3[8:1]*-5[8:1],
{4}8,8xp1[4:1],8,8xz4[8:1]*-5[8:1],8,26,A1/A7/A8f/B1/B7/B8/D1/D8/E1/E8,,
{16}3b,4,3,4,2,,15,,6,8,7,,1bx,,1bhx[8:1],,8x,2,8,2,7x,1,7,1,{8}6hx[8:1],5,4x/7x,,
{16}6b,5,6,5,7,,84,,3,1,2,,8bx,,8bhx[8:1],,1x,7,1,7,2x,8,2,8,{8}3hx[8:1],4,5x/2x,,
{16}3b,4,3,4,3,,12,,7,8,7,8,6bx,,6bhx[8:1],,8x,7,1,8,2x,1,{8}3,4x/8x,48,{4}2x/6x,
7h[8:1]/8h[8:1],1h[8:1]/2h[8:1],{16}45,,6,5,7,,3qq7[2:1],4,{4}2,,B5/B6/E6f,18,
2-5[8:1]/4-7[8:1],2bx/4bx,48,{8}37,{24}3h[8:1]/7,6,5,
4,,,1/6h[8:1],2,3,{8}4,7,78,,26,{24}2/6h[8:1],3,4,
5,,,3h[8:1]/8,7,6,{8}5,2,12,,17,{24}1h[8:1]/7,6,5,
4,,,2/8h[8:1],3,4,{8}5,7,{4}5-1[8:1]/7-4[8:1],5/7,
{2}3>5[4:1]b,4V28-6[4:1],5>7[4:1]b,6-1[8:1]*-2[8:1],
{16}3b,8,3,8,3,8,3,8,4b,7,4,7,4,7,4,7,
{4}5bh[4:1],{32}6,7,8,1,2,3,4,5,{4}6h[4:1],{32}4,3,2,1,8,7,6,5,{1}4bx/Cf,,,,E
Re:MASTER
- MASTER譜面を追加しました。修正等ありましたらよろしくお願いします。 -- けもがみ (2026-09-20 14:17:05)
最終更新:2026年09月20日 14:17