アットウィキロゴ

[HALO]

アーティスト Blacklolita

BPM BASIC ADVANCED EXPERT MASTER Re:MASTER
150 4 6 12 14 -

EXPERT MASTER Re:MASTER
譜面制作者 発光ビーバー けんけん法師 -

BASIC


ADVANCED


EXPERT


MASTER

(150)
{1},,
{4}1/3^6[16:5],,,6p3[8:5]/8,7,,,1,
{4}1<4[8:3]/3,,,1,2s6[2:1]/3z7[2:1],,,,
{8}5/7,7,1/7,7,5/6,6,6/8,6,2/4,2,8/2,2,3/4,3,1/3,3,
{16}6,5,7,3,4,2,7,8,6,2,1,3,8,4,7,5,{4}6q1[8:3],4-1[8:1],,3b/7b,

{16}2h[8:1]/5h[8:1],,,3/4h[16:17],{4},{32}8bx,7,{16}6,,,{32}8bx,1,{16}2,,,
{32}8bx,7,{16}6,,,{32}8bx,1,{16}2,,,{2}3-6[8:1]/5-8[8:1],
{16}7h[8:1]/4h[8:1],,,6/5h[16:17],{4},{32}1bx,2,{16}3,,,{32}1bx,8,{16}7,,,
{32}1bx,2,{16}3,,,{32}1bx,8,{16}7,,,4/6,,6,5,,3,4,,
{16}2bhx[8:1]/5bhx[8:1],,,1h[16:3]/4h[16:3],,,,,{32}4/8bx,7,{16}6,4,,{32}4/8bx,1,{16}2,4,,
{32}4/8bx,7,{16}6,4,,{32}4v2[4:1]*p6[4:1]/8bx,1,{16}2,{4},,{16},,
7bhx[8:1]/4bhx[8:1],,,8h[16:3]/5h[16:3],,,,,{32}5/1bx,2,{16}3,5,,{32}5/1bx,8,{16}7,5,,
{32}5/1bx,2,{16}3,5,,{32}5/1bx,8,{16}7,,,{2}2h[4:1]/6h[4:1],

{8}3/5,1/6,{4}7<5[8:1]/8p4[8:1],7V13[8:1]/8-3[8:1],7<4[8:1]/8-5[8:1],
7-3[8:1]/8-2>3[8:1],7/8,{8}1/4,2/5,3/6,4/7,
{16}3/8,,2,1/2,,7,7/8,,1/6,,{24}2,3,4,{8}5/6,5/6,1/3,5/7,2/4,6/8,1/3,{16}2,2/4,,6,4/6,,
{16}1/5,,2,4,,7,5,,4/8,,{24}7,6,5,{8}3/4s8[4:1],3/4,2,2,{4}1>2-6>5[4:1]*s5[4:1],,,
{16}3/8,,2,1/2,,7,7/8,,3/5,,{24}6,7,8,{8}1V73[4:1]/2,1/2,3p5[4:1],4,5<3[4:1],,{2}Cf,

{16}1v3-6[4:1],,,5,,,{8}4h[4:1],,7h[4:1],3,{4}3h[1:1],8q4-7<6-2[2:1],8,,{8},
{16}3/4,,2,2h[8:1],,1,3,,5/6,,7,7h[8:1],,8,6,,{16}2/1,,3,3h[8:1],,4,2,,8/7,,6,6h[8:1],,5,7,,
{16}8v6-3[4:1],,,4,,,{8}5h[4:1],,2h[4:1],6,{4}6h[4:5],1-7-3>2-5[16:7],1,,{8},
{16}4,3,2,1,8-4[8:1],7,6,5,{8}4/8,,2/3h[8:5],,2,2,,{32}A1f,D1,A8,D8,A7,D7,A6,D6,A5,D5,A4,D4,,,,,{8},
{16}2b,1,3,8,4,7,5,6,4b,3,2,1,8,7,6,5,1b,3,8,2,7,1,6,8,5b,6,7,8,1,2,3,4,
{4}1b/5,{16}7<4[8:1],8,7,8,{8}7,1,2>4[8:1],2<8[8:1],2x-5[8:1],2x-7[8:1],2x-6[8:1],2x,2x,,5b/7b,,
{16}8qq6q2[4:1],,,5,,,{4}4h[4:1],1v4[8:1],5v8[8:1],3h[2:1],7h[4:1],{8},
{64}3bx/7bx,D3/D7,A2/A6,D2/D6,A1/A5,D1/D5,,,{16},,
4x/5x,,6,5/7,,3,2/4,,1x/8x,,7,6/8,,2,1/3,,
4/5,,{24}6,5,6,{16}4,7,3,8,{32}2b,3,4,5,6,7,8,1,2,3,4,5,6,7,8,1,

{1}2b-6-3-7[8:13]/6b,,8<1[4:5],{4},,,2-5[8:1],
{4}2b/4-7[8:1],4b/6-1[8:1],6b/8-3[8:1],2/8b,
{16}4bx/6bx,4bx/6bx,4bx/6bx,,3bx/5bx,3bx/5bx,,4bx/6bx,4bx/6bx,,3bx/5bx,,,,,,
{16}2b/4b,2b/4b,2b/4b,,4b/5b,,4b/5b,,5b/6b,,5b/6b,,4b/7b,,,,
4bx/7bx,,{24}6bx,5bx,6bx,{16}5bx,5bx,,3bx/4bx,3bx/4bx,,2bx/5bx,,,,,,
{4}1-7-3>2-6>4[2:3],E4,E5,E6,E7,E8,E1,C,
{4}1v6<8-4>2[4:5],E5,E6,E7,E8,E1hf[4:1],,,
{8}1/2-5[8:1],,8,6,7-4[8:1]/8,,1,3,1/2>5[8:1],,8,6,7<4[8:1]/8,,1,3,
{8}2-6[8:1],2,8-4[8:1],8,1-5[8:1],1,7-3[8:1],7,{4}5V31[4:1]*V71[4:1],,,3/7,

{16}2b,1,3,6b,8,7,5b,5,2b,1,8,3b/7b,2,1,4b/8b,,6b,5,7,2b,4,3,1b,1,6b,5,4,7b/3b,6,5,8b/4b,,
{24}2h[4:1],,,,,,1,,,1/2,3/8,4/7,5/6,,,6,,,7,,,8/7,6/1,5/2,4/3,,,3,,,2,,,1/2,3/8,4/7,{2}5w1[8:1]/6,
{16}7b,8,6,3b,1,2,4b,4,7b,8,1,6b/2b,7,8,5b/1b,,3b,4,2,7b,5,6,8b,8,3b,4,5,2b/6b,3,4,1b/5b,,
{24}4x/7h[8:3],,,E4,B4,B5,{16}E6,,8,,8,7,,1/6,1/6<1[8:1],,,,1/6,2,3,4,5-1[8:1],6,7,8,1/5,,,,2b/8b,,,,

{8}3h[8:1]/5q1[8:1],4,3h[8:1]/5,,4h[8:1]/2v7[8:1],1,2/4h[8:1],,
5h[8:1]/8>3[8:1],7,5h[8:1]/8,,2-7[8:1]/4-7[8:1],3,2/4,,
{8}5-2[8:1]/6,4,5/7-3[8:1],8,1b-5[8:1]b/7,2,1b<6[8:1]b/4h[4:3],,1b>3[16:1]b,,1bs5[4:1]b,,1b,,6b,,
{8}4xv1[8:1],4x<6[8:1],4x-2[8:1],4xq8[8:1],4x,4x,3,3/8,{16}2,1,4,5,8,7,4,5,2,1,3,4,{24}1,5,1,5,1,5,
{32}1b,,,,,,2b/6b,3/7,4/8,1/5,,,4/8,,,,2b/6b,,,,,,3b/7b,2/6,1/5,8/4,,,1/5,,,,
3/7,,,,{24}2,1,2,{32}1,,,,3/7,,,,6b-2[8:1],5,4,3,2,1,8,7,2bw6[8:1],3,4,5,,7,8,1,
{1}2bx<3[4:9],,{4},,,E4,{8},E5,E



Re:MASTER


  • MASTER譜面のノーツの配置ミス、SLIDEの速度の修正、EXノーツの修正を行いました。 -- けもがみ (2026-09-28 02:11:07)
名前:
コメント:

タグ:

+ タグ編集
  • タグ:
最終更新:2026年09月28日 02:11