アットウィキロゴ

天靈靈地靈靈

アーティスト iKz feat.小可學妹

BPM BASIC ADVANCED EXPERT MASTER Re:MASTER
155 3 6 10 13 -

EXPERT MASTER Re:MASTER
譜面制作者 サファ太 アマリリス -

BASIC


ADVANCED


EXPERT


MASTER

(155)
{16}4x,,,,4,,,,5x,,,5,,,5,,
{8}4x,4,{12}5x,5,5,{16}4x,5,4,5,4,,,,
{8}2/4,2h[8:5]/4h[8:5],,,,,,,
{8}5/7,5h[8:5]/7h[8:5],,,,,,,
{8}2/4,2h[8:5]/4h[8:5],,,,,,,
{4}3/5,4/6,7/8,1/2,
{8}1/3V15[8:3],3/1h[8:5],,,,,,,
{8}8/6V84[8:3],6/8h[8:5],,,,,,,
{8}2V41[16:5]/6V47[16:5],2/6,,,,,8/2-6[8:1],,
{4}2bx-5[8:1],2bx-7[8:1]b,2bx/4bx,,
{8}5/8,5/8,1h[2:1],,3,,4,4,
{8}1/5,1/5,6h[2:1],,7,,8,8,
{8}1/5,1/5,2h[2:1],,3,,4,4,
{8}1-7[8:1],1,6-2[8:1],,3-5[8:1],,8,,
{8}7,7h[8:1],6,6h[8:1],5b,5h[8:1],4,3/4,
{8}2,2h[8:1],3,3h[8:1],4b,4h[8:1],5,5/6,
{8}7,7,4b/6b,4/6,2,2,3b/5b,3/5,
{16}7,8,,2,1,,5,3,4x,,,,6/3<6[8:1],,,,
{16}3b,,,,7,8,7,,{8}1,1/2,3,3/4,
{16}2h[8:1],,1,2,,7,8,,{8}6-8[8:1],1-5[8:1],6,1,
{16}8x,,7,,6,5,6,,{8}3/4,1/2,3/8,3/8,
{16}E3,B2,B1,E1,E4,E5,E6,E7,8xh[4:1],,,,6>3[8:1],,,,
{16}6b,,,,2,1,2,,{8}3,3/4,5,5/6,
{16}7h[8:1],,8,7,,2,1,,{8}3-5[8:1],8-5[8:1],3,8,
{16}4x,,3,,2<6[16:3],4,2,,6<2[16:3],,,,5,,,,
{8}4,3x/4x,1/2,7/8,7/8,,1b/6b,,
{4}5/2h[4:3],4,3,5,
{8}3/7h[2:1],,5,,6,5x/7x,5x/7x,,
{4}3h[2:1],4,1,1/2,
{8}3/4,,5/6,,7h[4:1],6bx,5bx,4bx,
{8}3bxh[4:1],,1,,1/2,1/8,7/8,,
{8}6h[4:1],,8,,7/8,1x/6x,1x/6x,,
{8}3x/4x,,5x/6x,6,7x/8x,,1h[4:1]/8h[4:1],,
{8},3bx/6bx,3bx/6bx,,{16}2b/4b,,,5b/7b,,,1b/8b,,
{16}2/8,,3,1,3,,{8}1/2,8,7/8,5/6,,
{16}1/7,,2,8,2,,{8}1/2,3-7[8:1],4,3,,
{16}6h[8:1],,5,6,5,,{8}5/6,3,3/4,2/1s5[16:3],,
{8},,,,4/3h[4:1],2bx,1bx,8bx,
{16}1bx/7bx,,6,8,6,,{8}7/8,1,1/2,3/4,,
{16}2/8,,7,1,7,,{8}7/8,6-2[8:1],5,6,,
{16}3h[8:1],,4,3,4,,{8}3/4,5/6,7/8,1/2,3/4,
{16},,2,2,1,,{8}3/8,2-6[8:1]b,6,2b,,
{4}5-1[8:1]/7<5[8:1],5/7,2bxh[4:1]/4bxh[4:1],,
{4}1v3[8:1]/5v7[8:1],1/5,2bxh[4:1]/6bxh[4:1],,
{8}2,3,4/5>2[8:1],,7/5<8[8:1],,5p2[2:1],,
{4}Cf,,,7x,
{4}1>4[8:1]/6<1[8:1],1/6,1bxh[4:1]/4bxh[4:1],,
{4}1<6[8:1]/4>1[8:1],1/4,1bxh[4:1]/6bxh[4:1],,
{8}2,2/4,3,3/5,6,4/6,7,5/7h[4:1],
{16},,8,,,2x/5x,,,{8}4bh[4:1]/7bh[4:1],,,5/6,
{16},,3x/4x,,,1x/8x,,,2b/6b,,,,3b/5b-8[8:1],,,,
{8}2-8[8:1],3,6-1[8:1],5,3-5[8:1],2,6>3[8:1],7,
{8}1-4[8:1],8,5,6,7-3[8:1],2/6,1,,
{8}2-5[8:1],1,6-1[8:1],7,4-1[8:1],3,6,7,
{8}8,1/7,2/6,3/5h[8:5],,6b,6b,,
{8}8>2[8:1],8,4<6[8:1],4,7>1[8:1],7,3v8[8:1],3,
{8}6xV82[4:1],6x,2xV46[4:1],2x,4,,8,,
{8}6,5/6,1/8,3/4,1/8,5/7,1/8,2/4,
{16}3,5,3,,7-3[8:1],5,7,,{8}3,1b,1b,1b,
{8}2-5[8:1]/8-5[8:1],3,2/8,,{16}7x,7xh[8:1],,5,,,5/6,,
{8}4-8[8:1]/7-5[8:1],6,4/7,,{16}2x,2xh[8:1],,4,,,3/4,,
{8}2-5[8:1]/6v1[8:1],3,2/6,,{16}8x,8xh[8:1],,4,,,2/6,,
{8},3h[8:1],5h[8:1],7h[8:1],{16}1b,,,3b/7b,,,1b/5b,,
{8}3>8[8:1]/7<4[8:1],6,3/7,,{16}1x,1xh[8:1],,3,,,2/4,,
{8}1>4[8:1]/5<8[8:1],4,1/5,,{16}7x,7xh[8:1],,6,,,5/8,,
{8}1-5[8:1]/4-8[8:1],3,1/4,,{16}6x,6xh[8:1],,8,,,1/5,,
{8},2b/4b,5b/7b,1b/8b,2bh[4:1]/7bh[4:1],,,,
{16}1x/8x,,,1x/2x,,,7x/8x,,D2,D3,D4,D5,A8,A7,A6,A5,
{12}D2/E2,B4,E3,D8/E8,B5,E7,A1/D1/E1,B8,E4,A4/D5/E5,,,
{16}7,,7h[8:1],,E8,B8,B1,E2,5,,{8}3/4h[8:3],2,2,
{16}E2,B1,B8,E8,E5,B5,B6,E7,A1,B1,C,B5,{32}D8,A7,D7,A6,D6,A5,D5,A4,
{16}2xh[8:1],,4,3,5h[8:1],,3,4,{12}2x,2,2,6x,6,6,
{12}1x,1,1,{16}7,8,7,8,7x,6x,5x,4x,3x,2x,1x,8x,
{16}2x/7x,,2/7,,8,1,8,1,7,,{8}5/6,3/4,3/4,
{16}1,2,3,4,5,6,7,8,{32}1/D6,A5,D5,A4,D4,A3,D3,A2,A1/A8/D1f/D2/D8/E1/E2/E8,,,,,,,,
{1}4bxh[4:5]/8bxh[4:5],
{2},{16}3b/7b,,,1b/5b,,,4b/7b,,
{8}3/6-2[8:1],2/5,1-3[8:1],8,5-1[8:1],6,4,4,
{8}3<8[4:1],1/8,6,,,1/4,1/4,,
{8}7/8>2[8:1],8,4<6[8:1],4,7>1[8:1],7,3v8[8:1],3,
{8}6xV82[4:1],6x,2xV46[4:1],2x,6,,8,,
{8}5/7,6,2/4,3,4/5,7/8,4/5,1/2,
{16}3,4,3,,6-2[8:1],5,6,,{8}2,1b,1b,1b,
{8}2q6[8:1]/8q5[8:1],3,2/8,,{16}7x,7xh[8:1],,5,,,2/4,,
{8}1p4[8:1]/5<8[8:1],6,1/5,,{16}3x,3xh[8:1],,1,,,4/8,,
{8}3v8[8:1]/7qq5[8:1],2,3/7,,{16}6x,6xh[8:1],,8,,,2/4,,
{8},3h[8:1],5h[8:1],7h[8:1],{16}1b,,,2b/6b,,,4b/8b,,
{8}3/1-6[8:1],3,4,5,{16}5,6,5,6,5,,4bx/6bx,,
{8}7/4-2[8:1],7,8,1,{16}1,2,1,2,1,,1bx/3bx,,
{8}8/3-8[8:1],7,6,5,{16}4,8,4,8,4,,1bx/5bx,,
{8},2b/3b,4b/5b,6b/7b,1b/8b,,1>4[8:1]b/8<5[8:1]b,,
{8}1b/8b,,,{16}B4f,B5f,
E

Re:MASTER


名前:
コメント:

タグ:

+ タグ編集
  • タグ:
最終更新:2026年10月19日 20:08