BASIC
ADVANCED
EXPERT
MASTER
(202)
{8}3h[4:1]/7h[4:1],,,37,,,46,46,3,3,25,25,6,6,47,,
{16}5h[8:1]/6h[8:1],,,4h[8:1]/5h[8:1],,,3h[8:1]/4h[8:1],,,4h[8:1]/5h[8:1],,,{4}5/6-1[8:1],
3-8[8:1]/6,3,7,15,
{16}6h[8:1]/8h[8:1],,,1h[8:1]/8h[8:1],,,1h[8:1]/3h[8:1],,,1h[8:1]/8h[8:1],,,{4}68,
1/7-3[8:1],2-5[8:1]/7,2/4-8[8:1],4,
{8}1,1,28,28,{32}3x,4x,5x,6x,7x,8x,1x,2x,3x,4x,5x,6x,7x,8x,1x,2x,{4}3x,,,15,
2<6[2:1]/4,4,4,4,5,5,46,{8}37,37,{4}3/7<3[2:1],2,2,2,1,1,{8}26,26,4b/8b,,
7,7,16,16,5,5,24,24,3,3,28,28,1,1,78,78,{16}1,6,1,6,2,5,2,5,3,4,3,4,2,5,2,5,{4}2qq5[2:1],,,7b,
{1}4bhx[4:3]/6hbx[4:3],{16}5,5,5,5,5,5,5,5,{8}5-1[8:1],46,A5f,,
8x,2h[8:1],8,2h[8:1],4,2h[8:1],4,2h[8:1],1,2h[8:1],5,2h[8:1],{16}4,3,{8}4,4x-8[8:1],,
A4f,,12,12,{2}3-6[8:1]/8-5[8:1],{8}4x,7h[8:1],5,7h[8:1],6,7h[8:1],{16}8,7,{8}8,
1,1,2h[8:1]/8h[8:1],,5h[8:1]/6h[8:1],,{16}7,8,7,,{4}1/6-3[8:1],2-7[8:1]/6,1-5[8:1]/2,1,
4/6p8[2:1],{8}5b,5b,{2}5bh[4:1],{16}7x,5,6,,3x,4,{8}3,12,38,4/7pp3[1:1]*qq3[1:1],,
{1}7bx,{4},,E3h[2:1],7b,
1b,{8}48,48,37,37,2h[16:1]/6h[16:1],2h[16:1]/6h[16:1],15,15,48,4h[16:1]/8h[16:1],15,15,26,26,
{16}3,4,2,5,1,6,8,7,5,6,4,7,3,8,2,1,{2}2b,{32}E8,E7,E6,E5,E4,E3,E2,E1,{4}A7f/D8/E8,
{16}3b-8[8:1],,,4,3,,5,,6-1[8:1],,,5,6,,4,,3,,8,1,,7,5,,8,1,,3,2x/4x,,,,
2,3,4,5,6,7,8,1,7,6,5,4,3,2,1,8,2,3,4,5,8,7,6,5,1,2,3,4,{8}57,,
8-4[8:1],8,3,3,2-6[8:1],2,4,4,{16}7x,5,8,6,1,7,2,8,3,1,3,,48,,,,
17,,2,4,3,,7,5,6,,1,4,3,,7,,56,,56,,,17,,,{4}3h[4:1]/4h[4:1],,
1-5[8:1]/8-4[8:1],1b/8b,{16}3-8[8:1],,,4,3,,6,,7,,4,5,,3,1,,4,5,,7,68,,,,
7,6,5,4,3,2,1,8,2,3,4,5,6,7,8,1,7,6,5,4,1,2,3,4,8,7,6,5,2,3,4,5,
{8}6x-2[8:1]/7,,8x,8,1-5[8:1]/8,8,8,8,4x/8-3[8:1],4,4,4,2-6[8:1]/4,4,4,4,
7h[4:1],,{16}5,5,,8,8,,37,37,,1qq2[16:9]/5,1/5qq6[2:1]b,,{1},
{8}3h[4:1],,1,8h[4:1],,1^6[4:1],2,3,,5q2[4:1],4,{2}3,{16}3,4,
{8}3,5,6,7-4[8:1],,3,2,1,
,{16}B4/B5/D5f/E5,,,A2f/B2/E2/E3,,,A7f/B7/E8/E7,,,A3f/B3/E4/E3,,,{8}B1/B8/D1f/E1,
6,5-1[8:1],4,35,,2-6[8:1],1,28,,7^2[8:1],6,57,,4,3,2,
13,8,7,6/8h[4:1],,7,6,4/5h[4:1],,6,57,58,15,25,35,,
{2}4v2^3q7[4:7],B8,,B2,8pp2-7v4[4:7],B5,,B2,1>1[4:11],{1}E4,E2,E8,{4}E6,,
3h[4:1]/4,4,5/6h[4:1],5,2h[4:1]/4,3,5/7h[4:1],6,
{8}4,4,46,6,26,2,28,8,{16}1,1,1,1,1,1,1,1,{4}1,3b-6[8:1]/7b,
3/8-4[8:1]b,2-5[8:1]/8,2^8[8:1]/7-5[8:1],2/7-3[8:1],1-6[8:1]b/7,1^4[8:1]/5^8[8:1],15,{8}37,37,
2-6[8:1]/8,8,{4}2/8-3[8:1]b,58,{16}15,48,{8}37,,2-7[8:1]/6-1[8:1],4,26,,3x/5x,{4}3qq7[8:3]/5,
37,5-1[8:1]b,5,{8}28,37,,5-2[8:1]/6v1[8:1],47,56,,{16}3x,8,2,7,1,6,
{8}8-3[8:1],5-1[8:1],8,5,,4-8[8:1],3,2h[8:3]/4,,,{24}1x,8,7,6,5,4,1x,8,7,6,5,4,{4}1b/3<7<3[4:5],
{1}8h[4:5],{4},,2b/7b,{16}1-5[8:1],8,1,8,
{8}1,6x,2-7[8:1]/6-3[8:1],,26,,{16}48,15,{8}26,,3-8[8:1]/7-2[8:1],5,37,,4x/6x,4-8[8:1]/6,,
24,,1-4[8:1]*-6[8:1],1,1,,25,47,,1v6[8:1]/2-5[8:1],38,12,,{16}7x,4,6,3,5,2,
{8}4-8[8:1],1-5[8:1],4,1,,6x/7,18,2h[8:5]/3h[8:5],{4},,,58,
6p4^2[8:13],,,{8},1h,1h,1h,1h,1h,1h,1h,1h,1h,{1},{4},,8-4[8:1],8b,
{16}3x/5x,2,1,7,6,5,3,2,1,7,6,5,3,2,1,8,5,6,7,8,2,3,4,5,1,8,7,6,4,3,2,1,
6,7,8,1,2,3,4,5,26,1,8,7,6,5,4,3,8,7,6,5,4,3,8,1,2,3,4,5,8,7,6,5,
2x,3,4,6,7,8,2,3,4,6,7,8,2,3,4,5,8,7,6,5,3,2,1,8,4,5,6,7,1,2,3,4,
6,7,8,1,2,3,4,5,26,1,8,7,6,5,4,3,{4}2hx[4:3]/7x,,,5b,
{24}3,4,3,4,3,4,{12}2,2,2,{8}5-1[8:1],5,4^7[8:1],4,8h[4:1],,2,1/3h[4:1],,{24}2,1,8,7,,,47,,,
6,5,6,5,6,5,{12}7,7,7,{8}5-1[8:1],5,7^4[8:1],7,2V84[4:1],,6,7,,{16}38,27,1b/6b,,,,
{24}7,8,7,8,7,8,{12}6,6,6,{24},,,2,3,4,{12}5-1[8:1],6,6,{8}5,,,{24}78,6,5,{12}4-8[8:1],3,3,4,,,
{24}2x,6,2,6,2,6,{12}15,15,15,{8},{32}8x,7,6,5,4,3,2,1,8,7,6,5,{1}4bxv2[8:5]b/8bxv6[8:5],
{1}A3h[1280:1]/B3h[1280:1]/E4h[1280:1]/A7h[1280:1]/B7h[1280:1]/E8h[1280:1],,,,E
Re:MASTER
- MASTER譜面を追加しました。修正等ありましたらよろしくお願いします。 -- けもがみ (2026-09-25 17:59:03)
最終更新:2026年10月19日 20:09