アットウィキロゴ

Crossfire

アーティスト Blacklolita

BPM BASIC ADVANCED EXPERT MASTER Re:MASTER
200 4 7 11 13+ -

EXPERT MASTER Re:MASTER
譜面制作者 サファ太 Jack -

BASIC


ADVANCED


EXPERT


MASTER

(200)
{1}3b^6[4:5],,7p2[4:5],,1p8[4:5],,7>6[2:3],,
{2}1-5[8:1],8-4[8:1],2-8[8:1],6-4[8:1],
{4}2-6[8:1],1-5[8:1],8-4[8:1],7-3[8:1],1^4[8:1],8^5[8:1],3-6[8:1]*-8[8:1],,
{8}7-1[8:1],7-4[8:1],,,2-8[8:1],2-5[8:1],,,6-2[8:1],6-8[8:1],,,3-7[8:1],3-1[8:1],,,
{1}8z4[2:1],{24}3b<1[4:1],4b<2[4:1],5b<3[4:1],6b<4[4:1],,,{4},,C,

{8}7bhx[4:1]/8bhx[4:1],,,6h[4:1]/7h[4:1],,,5pp4[8:3]/6pp4[8:3],,{2},3x-7[8:1]*-8[8:1],
{8}5h[4:1]/6h[4:1],,,5h[4:1]/6h[4:1],,,7V53-1>7[8:7]/8<2V46-8[8:7],,{1},
{8}1hx[4:1]/2hx[4:1],,,2h[4:1]/3h[4:1],,,{2}3^6[8:1]/4-8[8:1],1xV37-5[8:3],{8},,
3h[4:1]/4h[4:1],,,3h[4:1]/4h[4:1],,,1V75[4:1]/2v3V51[2:1],,{2},7bx-1[8:1]*-5[8:1],
{8}3h[4:1],,1h[4:1],8h[4:1],,6>2[4:1],4>6[8:3],,{2},5w1[8:1],
{8}7h[4:1],,5h[4:1],4h[4:1],,2h[8:3],8V27-3-6-4[8:5],,{2},2-6[8:1]b,
{8}4>8[8:1],,,7^4[8:1],,,1^6[8:1],,,4^2[8:1],,,6^4[8:1],,1b<2[8:7]b,,
{1}B5/B6/Cf/E6,{4}1-3[8:1]/8-6[8:1],1-5[8:1]/8-4[8:1],,,

1b^4[8:1]/8bh[8:1],7h[8:1],5h[8:1]/6x-1[8:1],4h[8:1],
2hx[8:1]/3hx[8:1],7^4[8:1]/8h[8:1],2x-6[8:1]/7x-1[8:1],,
3b^8[8:1]/4bh[8:1],5h[8:1],6x^3[8:1]/7h[8:1],8h[8:1],
1hx[8:1]/2hx[8:1],4h[8:1]/7-3[8:1],2x-8[8:1]/7x-5[8:1],,
{8}4xV28[4:1],,,5v7[16:3],,,6h[4:1],,5V71[4:1],,,4v2[16:3],,,3h[4:1],,
4>6[16:5],,,5p7[16:3],,,6h[4:1],,5<3[16:5],,,4-8[8:1],,,{4}A3/B3/E4f,
8b^5[8:1]/1bh[8:1],2h[8:1],4h[8:1]/3x-8[8:1],5h[8:1],
7hx[8:1]/6hx[8:1],2^5[8:1]/1h[8:1],7x-3[8:1]/2x-8[8:1],,
6b^1[8:1]/5bh[8:1],4h[8:1],3x^6[8:1]/2h[8:1],1h[8:1],
8hx[8:1]/7hx[8:1],5h[8:1]/2-6[8:1],7x-1[8:1]/2x-4[8:1],,
{8}5x>7[8:3],,,7^4[16:3],,,B1/B2/E2,,8V24-6[8:3],,,6-1[16:3],,,B3/B4/E4,,
2-5v8[8:3],,,8V26[8:3],,,{4}A7/B7/E8,4h[4:3],,,{16}6b<5[16:7],7b>6[16:7],8b>7[16:7],1b>8[16:7],

{1}2bh[1:4],,,,{4}6^3[4:5],,,B2h[4:13],{1},{4}3^6[4:5],,,Chf[4:5],{1},
{4}8bh[4:3],,,2V46[2:1],,7h[2:1],,5V31[2:1],,6h[2:1],,8-3[2:1],7-4[2:1],,,{8}2h[8:1],3h[8:1],
{4}4q1^3[4:5],,,B2,,E6,,{8}5h[8:1],6h[8:1],{4}7^5p8[4:5],,,B7,,E4,,{24}A7,B7,C,B3,A3,,
{4}1hx[4:3],,,{2}7V53[2:1],2h[2:1],4V68[2:1],3h[2:1],{4}1-6[2:1],{1}2-5[2:1],
{4}6h[8:1],5h[8:1]/6h[8:1],3h[8:1],4h[8:1]/3h[8:1],7-3[8:1]/8h[8:1],8h[8:1],2-6[8:1]/1h[8:1],1h[8:1],
7-4[8:1]/8h[8:1],3h[8:1],2-5[8:1]/1h[8:1],6h[8:1],{16}A7,B7,C,B3,A2,E2,E1,A8,A6,E6,E5,A4,A2,B2,C,B6,

{4}A7/A8/B7/B8/E8f,3hx[8:1]/4hx[8:1],2^5[8:1]/5^8[8:1],5-1[8:1],
{8},8h[8:1],2h[8:1],6h[8:1],4qq5[16:5],,{16}D2f,D1f,D8f,D7f,
{4}D6f,5h[8:1]/6h[8:1],3v8[8:1]/7-4[8:1],,{8},1-3[8:1],3-5[8:1],5-7[8:1],{4}8b-4[8:1]b,,
1h[8:1]/2h[8:1],6h[8:1]/7h[8:1],3-8[8:1]/4-8[8:1],,
5h[8:1]/7h[8:1],1q6[8:1]/2V46[8:1],,{8}7-3[8:1],8-2[8:1],
7-5[8:1],8-4[8:1],{4}7s3[4:1]b,,2xV48[4:1],8bV62[4:1],,1bw5[8:1],,
7-3[8:1],8-4[8:1],1-5[8:1],2-6[8:1],3-7[8:1],4-8[8:1],5-1[8:1],,
3-1[8:1]/7-4[8:1],7-1[8:1],2-6[8:1],2-4[8:1]/8-4[8:1],8^5[8:1],3^8[8:1],3-5[8:1]/6-1[8:1],,
7-1[8:1]/4h[8:1],7-5[8:1]/3h[8:1],7-3[8:1]/2h[8:1],1h[8:1],
2-4[8:1]/8h[8:1],2-8[8:1]/7h[8:1],2-6[8:1]/6h[8:1],2<3[4:3]/5h[8:1],
{1}B3/B4/E4f,{12}D2,D6,D3,D8,D4,D7,E2,E6,E3,E8,E4,E7,

{4}4bhx[8:1]/5bx^8[8:1],3h[8:1],1h[8:1]/2x-5[8:1],8h[8:1],
6hx[8:1]/7hx[8:1],3^8[8:1]/4h[8:1],3x-5[8:1]/6x-2[8:1],,
7b^4[8:1]/8bh[8:1],1h[8:1],2x^7[8:1]/3h[8:1],4h[8:1],5hx[8:1]/6xV84[4:1],4b-2[8:1],1xw5[8:1]b,,
2h[8:1]/8h[8:1],5h[8:1]/7h[8:1],{2}2^5[8:1]/6^1[8:1],4xp7[8:1]/8xp3[8:1],4x-7[8:1]/8x-3[8:1],
{4}1h[8:1]/5h[8:1],3h[8:1]/4h[8:1],2^5[4:1]/6h[8:1],5^8[4:1],8^3[4:1],3^6[4:1],7-3[8:1],,
5bh[8:1]/4b^1[8:1],6h[8:1],8h[8:1]/7x-4[8:1],1h[8:1],
3hx[8:1]/2hx[8:1],6^1[8:1]/5h[8:1],6x-4[8:1]/3x-7[8:1],,
2b^5[8:1]/1bh[8:1],8h[8:1],7x^2[8:1]/6h[8:1],5h[8:1],
4hx[8:1]/3hx[8:1],6-2[8:1]/1h[8:1],6x-8[8:1]/3x-5[8:1],,
5hx[8:1]/8hx[8:1],1hx[8:1]/4hx[8:1],{2}5-8[8:1]/8^5[8:1],1^4[8:1]/4-1[8:1],5-1[8:1]/8-4[8:1],
{32}D2,A2,D3,A3,D4,A4,D5,A5,D6,A6,D7,A7,D8,A8,D1,A1,
{4}A2/D2f/E2/6x-2[8:1],3x-7[8:1],{1}8bz4[2:1]*V26-4[2:1],

{4}2b-6[8:1],7h[8:1],5x-3[8:1]/6hx[8:1],7h[8:1],2-6[8:1],8h[8:1],5x-3[8:1]/6hx[8:1],8h[8:1],
2-6[8:1],1h[8:1],5x-3[8:1]/6hx[8:1],1h[8:1],2-5-1[4:1],1-6[8:1],7b-3[8:1]*-4[8:1],,
1h[8:1],3h[8:1]/8-4-8[8:3],5h[8:1],3h[8:1],{2}1-7[8:1]/2pp5[8:5],6-8[8:1],
{4}4h[8:1],5h[8:1]/7-3-7[8:3],1h[8:1],8h[8:1],1^4[8:1],1^6[8:1],1s5[16:3],,
7b-3[8:1],2h[8:1],3x-7[8:1]/4hx[8:1],2h[8:1],7x-3[8:1],1h[8:1],3x-7[8:1]/4hx[8:1],1h[8:1],
7x-3[8:1],8h[8:1],3x-7[8:1]/4hx[8:1],8h[8:1],{2}7x-3-6-4[8:3],1b-4[8:1]*-6[8:1],
{4}8h[8:1],6h[8:1]/1-5-1[8:3],4h[8:1],6h[8:1],{2}8-2[8:1]/7qq4[8:5],3-1[8:1],
{4}5h[8:1],2z6[4:1]/6h[8:1],7h[8:1],8h[8:1],
1x^6[8:1],{24}D4,A3,D3,A2,D2,A1,{4}8x^3[8:1],{24}D6,A6,D7,A7,D8,A8,
{1}1bxpp8[8:59]/5bxpp4[8:59],,,,,,,{4},,,3-7[8:1]b/7-3[8:1]b,{1}Cf,,,,E

Re:MASTER


  • MASTER譜面を追加しました。修正等ありましたらよろしくお願いします。 -- けもがみ (2026-10-12 10:16:11)
名前:
コメント:

タグ:

+ タグ編集
  • タグ:
最終更新:2026年10月12日 10:16