BASIC
ADVANCED
EXPERT
MASTER
(186)
{4}E4,,E8,E1,{2}E2,E6,E8,{4}E4,E5,{2}E6,E2,
2>1[8:11],{4}E7,E6,{2}E5,E3,7^2p6[1:1],{4}B4,B5,{1}Chf[8:5],
8h[1:2],{4},,E5,E6,{2}E7h[2:3],E8h[1:1],{1}E1h[2:1],
1v3[16:7]/5v7[16:7],2pp4[16:7]/6pp8[16:7],
{2}3h[4:1]/7h[4:1],2h[4:1]/6h[4:1],{16}1,5,1,5,2,4,2,4,{4}3-7[8:1],5b,
{8}68,15,{4}6^3[8:1]/8,2q6[8:1],4,{8}7,8,16,7,8,7,28,,
31,84,{4}3^6[8:1]/1,7p3[8:1],5,{8}2^5[8:1],1^6[8:1],2,1,,24,2b/4b,,
75,48,{4}7^2[8:1]/5,3p7[8:1],1,{8}6,5,47,6,5,6,47,,
13,2,2,2,68,7,7,7,78,25,{4}3v8[8:1]/7v4[8:1],37,2b/6b,
{8}1,1,13,1,17,1,13,1,5,5,57,5,35,5,57,5,
2,2,24,26,28,2,24,2,7,7,75,73,71,7,75,,
{16}2,1,2,,38,,45,,7,8,7,,16,,25,,3,4,3,,25,,18,,6,5,6,,47,,25,,
3,4,2b,,6,5,7b,,3,4,1b,,6,5,8b,,2,1,,7,8,,16,,2h[8:1]/4h[8:1],,,5h[8:1]/7h[8:1],,,18,,
2b/7b,,,,3,4,3,,25,,1h[8:1],,7,7h[8:1],,5,5h[8:1],,3,3h[8:1],,1,{8}1,8,7,5bx/6bx,,
{16}25,,3,4,3,,6,5,,7,8,,2-5[8:1],1,3,,{4}2/8-3[8:1],6-1[8:1]/8,4-7[8:1]/6,34,
{8}28,7,56,56,47,3,26,,18,{16}7,57,,2,24,,6,5,6,,38,,,,
2,1,2,,3/8-4[8:1],,,,8,,3,2,1,8,7,6,5,4/6x,3/7x,2/8x,{8}1xw5[8:1],1,{2}1b,
{1}3h[2:7]/7<8z4[4:13],,,,
2h[2:3]/5h[2:1],4h[2:3],5h[8:11],{2}7h[8:3],{16},,4,6,3,7,2,8,
{4}1-6[4:1],6-3[4:1],4h[4:1],,{16}25,,3,4,,,25,,4,3h[16:3],,,{4}1,
8-3[4:1],3-6[4:1],5h[4:1],,{16}74,,6,5,,,74,,5,6,,,{4}47,
{1}E7h[4:11],{2}E3h[4:7],E6h[4:5],
{1}E4h[4:3],{2}Cf,{16}7,8,6,1,{4}7-5[8:1]*-1[8:1],
7b-3[8:1],2-6[8:1]/7,2/8-4[8:1],5-1[8:1]/8,5/6^3[8:1],2^7[8:1]/6,24,{8}5-8[8:1],5,
{4}5v2[8:1],5^8[8:1]/7,3/5^2[8:1],57,{8}78,78,16,,15,{24}2,4,2,{4}4bx,
{16}6,5,6,5,6,,47,,3,4,3,4,3,,25,,7,5,7,5,6,4,6,4,5-1[8:1],3,5,3,{8}5,,
28,28,37,37,46,57,48,,{16}1bh[8:1]/3bh[8:1],,,6bh[8:1]/8bh[8:1],,,{8}4b/5b,,26,26,,
1q5[8:1],5<4[16:7],1,,{16}E4,,,E7,,,{8}1h[8:3],,5,5h[2:1],,{16}E2,E3,E4,E5,E6,E7,E8,E1,
{8},24,24,7,56,2,34,7,4-8[8:1],26,{4}4/8w4[8:1],,26,
{8}7-3[8:1],3V17-5[8:3],7,,{16}E5,,,B7,,,{8}1V38-4-7-5[3:2],,A1f,A3f,A8f,A4f,A7f,A5f,,
4x/6x,{16}D8,A8,D1,A1,D2,,E7,E6,E5,E4,E3,,,,2,1,2,,7,8,,8,6,,3,4,2,,16,,
{24}7bx,8,7,8,,,6bx,5,6,5,,,3bx,4,3,{8}4,12,12,{16}7,8,6,8,5,,2,1,3,1,4,,38,,38,,
2h[8:1],,8,8h[8:1],,6,6h[8:1],,4,4h[8:1],,1,1,,,,
{24}2x,3x,2x,3x,2x,3x,2x,3x,2x,3x,2x,3x,2x,3x,2x,3x,2x,3x,2x,3x,2x,3x,2x,3x,
{4}1hx[4:1],{24}E5,E6,E7,E8,E1,E2,E3,E4,D5,D6,D7,D8,{4}B1/B8/D1/E1,
2bhx[2:1]/6bhx[2:1],,,3bhx[2:1]/5bhx[2:1],,,35,2bv5[8:1]/6b,
{8}2/8^5[8:1],1,4-8[8:1]/8,3-1[8:1],4<2[4:1],3,{4}4,3s7[4:1],4h[4:1],{24},,,8bx,1,2,{8}7v4[8:1]/3,,
7/1^4[8:1],8,5-1[8:1]/1,6-8[8:1],5>7[4:1],6,5,,6,6,17,35,12,56,3b/7b,,
{16}46,7,8,1,2,3,4,5,26,37,48,15,{4}2-7[8:1]/6-3[8:1],2^5[8:1]/6^1[8:1],2/6-2[8:1]b,68,3b/7b,
{8}1/7v4[8:1],1,1,1,1/3v6[8:1],1,1,1,1/5v2[8:1],1,1,1,13,24,35,46,
5/7v2[8:1],5,5,5,1v6[8:1]/5,5,5,5,{4}8-4[8:1],4-2^1[8:1]*-6^7[8:1]/8,,26,
{16}3,4,3,4,2,5,1,6,8-4[8:1],7,1,6,A8f,,,,6,5,6,5,7,4,8,3,1-5[8:1],2,8,3,A1f,,,,
2,6,3,7,4,8,5,1,{8}6-1[8:1]*-2[8:1],57,6,,
{16}3bh[8:1]/4bh[8:1],,,1bh[8:1]/7bh[8:1],,,B2/B3/B4/B5/E2/E3/E4f/E5/E6,,
,,7,8,1-4>8[16:11]/6-3<7[16:11],,,,
{1},{16}7b/8b,,,2b/4b,,,5b/7b,,,1b/3b,,,7b^2[8:1]/8b,,,,
5/7-4[8:1],,,3,{8}7-1[8:1],1,2/7^4[8:1],3,{4}3-8[8:1]/7-2[8:1],
3/7-5[8:1],3-1[8:1]/7-3[8:1],37,2^5[8:1],
{16}1/2-8[8:1],,,7,{8}2^5[8:1],5,26,7,{4}2-6[8:1]/8^6[8:1],
8-4[8:1],5h[4:1]/8,{8}3-7[8:1],3,4,,
{16}6,5,6,,4h[8:1]/7h[8:1],,,,3,4,{8}3,1-4[8:1]/2-4[8:1],38,
{4}1-7[8:1]/2-7[8:1],1p5[8:1]/2q6[8:1],12,47,
{8}24,24,24,1,68,68,68,5,34,34,34,2,17,17,1b/7b,,
8p4[8:1],1^3[8:1],8,1,6^8[8:1],5p1[8:1],6,5,7v4[8:1],3v8[8:1],7,3,{4}5bx,1/6h[4:1],
{16}1,6,1,6,8,6,8,6,7,6,7,6,5,6,5,6,3,4,2,5,1,6,8,7,5,6,4,7,3,8,2,1,
{8}3h[16:1]/8h[16:1],3h[16:1]/8h[16:1],1h[16:1]/6h[16:1],1h[16:1]/6h[16:1],
4h[16:1]/7h[16:1],4h[16:1]/7h[16:1],25,,
{16}6b/8b,,,1b/3b,,,{24}4b/5b,36,27,{8}1-5[8:1]/8-4[8:1],27,{4}1b/8b,
3<7[4:1],7V52[4:1],8,1h[8:5],{8}2,3,4,5,,68,{4}68,
7<2[4:1],2V47[4:1],1,8h[8:5],7-3V15[16:7],,{8},8,8b,,
68,68,7,7,46,46,5,5,24,24,3,3,28,28,1b,,
28,{16}8,7,26,,2,3,46,,6,5,3/4h[4:1],,,,
{32}3bx,2,1,8,7,6,5,4,3,2,1,8,4bx,5,6,7,8w4[8:1],1,2,3,4w8[8:1]b,5,6,7,{4}8,
{1},,,,E
Re:MASTER
- MASTER譜面を追加しました。修正等ありましたらよろしくお願いします。 -- けもがみ (2026-10-03 01:27:32)
最終更新:2026年10月03日 16:57