BASIC
ADVANCED
EXPERT
MASTER
(118)
{24}18,,,24,,24,,,6,57,,,1-5[8:1]/8-4[8:1],,2,7,,,{4}A1/A8/D1f,
7hx[2:1],6,5h[2:1],4,3h[2:1],2,1h[4:1],8h[4:1],2h[2:1],3,4h[2:1],5,6h[2:1],7,8h[4:1],1,
{24}7x,,5,6,,5,6,,7h[8:1],,,6h[8:1],,,5,5h[8:1],,,4h[8:1],,,3h[8:1],,,
2,,4,3,,4,3,,2h[8:1],,,3h[8:1],,,4,4,,,5p4[4:1],,6,4,,3,
{4}5x,{24},,2,1,,,34,,,6h[12:1],,5,,,7,8,,,18,,,3h[12:1],,4,,,2,1,,,8h[12:1],,1,,,67,,,5,4,,,
3x/4x,,4,3,,4,2,,4,1,,4,{8}8h[8:3],E3,E1,E7,{24}65,,5,6,,5,7,,5,8,,5,{8}1h[8:3],E7,E1,E3,
{24}3,4,3,4,3,4,3,4,3,7,,,6,5,6,5,6,5,6-3[12:1],5,6,2,,,{2}A7/A8/D8f,{24}12,,12,,,5,4b/6b,,,1b/7b,,,
1x/2x^7[8:1],,3,4,,4,2,,5,,,6,6-4[8:1],,4,4-8[8:1],,,3,,,1,,,
3v6[8:1],,2,1,,1,3,,8,,,7,5,,5,4,,4,2,,2,{8}7-2[8:1],
5b,4/7-4[8:1],3,7-2[8:1]/8,2,6/7-4[8:1],4,78,
{24}2x,,2,4,,4,5x,,5,7,,7,2x,,2b/4b,,,4b/5b,,,6,5b/7b,,,
8x/7x^2[8:1],,6,5,,5,7,,4,,,3,3-5[8:1],,5,5-1[8:1],,,6,,,8,,,
6xv3[8:1],,7,8,,8,6,,1,,,2,4,,4,5,,5,7,,7,{8}2-7[8:1],
4b,5/2-5[8:1],6,2-7[8:1]/1,7,3/2-5[8:1],5,21,
{24}6x,,6,8,,8,1x,,1,3,,3,6,5,7,4,8,3,12,,3,4,,,
3b/8b,,2,1,,{8}3/8v5[12:1],1,3v6[12:1]/8,2,3/8v5[12:1],1,{24}8,
2x,,2,4,,4,5,,5,7,,7,{8}1^4[8:1]*-5[8:1],28,1x,,
{24}2b/6b,,7,8,,{8}6/1v4[12:1],8,6v3[12:1]/1,7,6/1v4[12:1],8,{24}1,
7,,7,5,,5,4,,4,2,,2,{8}8^5[8:1]*-4[8:1],71,8x,,
{24}2b/6b,,3,4,,{8}2/5v8[12:1],4,2v7[12:1]/5,3,2/5v8[12:1],4,{24}5,
3,,3,1,,1,8,,8,6,,6,1^4[8:1],,,26,,,5b,6,7,8,,,
3x,4,3,5,4,5,3,4,2,5,4,6,1,,1,7,,7,5,,5,3,,3,
8x,1,2,3,4,5,1x,2,3,4,5,6,{8}1h[24:1]/7h[24:1],4h[24:1]/5h[24:1],2h[24:1]/8h[24:1],1b/7b,
B4/B5f/D4/D6/E4/E6,,3h[8:1],1b,5/6h[8:1],8b,3h[8:1]/4,1b,
5/6h[8:1],8b,3h[8:1]/4,1b,5/6h[8:1],8b,{48}2,3,4,5,6,7,{8}8,
2x-5[8:1],5-8[8:1],8p3[4:1]b,,3-6-1[4:1],6,1p4[4:1]b,,
4x-7-2[4:1],7,2pp5[4:1]b,,5,5,{48}6,7,8,1,2,3,{8}4,
3x/6x,,1/2h[8:1],4b,7h[8:1]/8,5b,1/2h[8:1],4b,
7h[8:1]/8,5b,1/2h[8:1],4b,{12}2x/5x,3x/6x,4x/7x,{48}8,7,6,5,4,3,{8}2,
7x-4[8:1],4-1[8:1],1q6[4:1]b,,6-3-8[4:1],3,8q5[4:1]b,,
5x-2-7[4:1],2,7qq4[4:1]b,,4,4,{48}3,2,1,8,7,6,{8}5,
2b-6[12:1],1b-5[12:1]/3,2b/8,1b,8b-4[12:1],1/7b-3[12:1],6/8b,7b,
{24}1b,2,3,48,,37,{8}3b/7b,4b/5b^8[12:1],5b^2[12:1]/7b,3/5-1[12:1],5,5,
2b,{24}3,4,3,7b,,,6,5,6,2bw6[8:1],,2,1,,1,{4}2b,
{24}4x,,4,3,,3,2,,2,1,,1,2x/8x,3,4,15,6,7,48,1,2,37,4,5,{1}2bp7[2:1]/6bp3[2:1],
{2}1xq5[2:1],6q2[2:1],4V28[2:1],7V53[2:1],1s5[2:1],6z2[2:1],1q4[2:1],{4}7-3[8:1],7,
{8}1x-5[8:1],2,8-4[8:1],7,2-6[8:1],3,1-5[8:1],8,3-7[8:1],2,6-2[8:1],5,{2}1pp4[4:1],
{24}7,6,5,7,6,5,7,6,5,7,6,5,2,3,4,2,3,4,2,3,4,2,3,4,
15,,,27,,27,,,6,5,,,2-7[12:1]/4-7[12:1],,24,,,1,{4}2b/4b,
{1}1x>5[2:1]/5x<1[2:1]b,
{24}4x/5x,,3,3x/4x,,6,5x/6x,,3,2x/4x,,6,5x/7x,,2,1x/4x,,7,5x/8x,,,B1f/B8/D2/D8/E2/E8,,,
4xv7[8:1]/5x,,3,4,,2,4,,1,,,8,6,,7,6,,,5/6h[8:1],4,3,2^7[8:1],,5,
5b,,,2^5[8:1]/3,,,6,,1,2^7[8:1],,,6,,3,2^5[8:1],,,6,,1,2,,,
7,,7,5-1[12:1],,4,5,,6,5,,,28,,1b/3b,,,4b/5b,,,6,5b/7b,,,
1xv6[8:1]/8x,,2,1,,3,1,,4,,,5,7-2[8:1],,6,7,,,17,,,3,,,
5xv2[8:1]/4x,,6,5,,7,5,,8,,,1,3x,,2,3,,,4/3h[8:1],5,6,7^2[8:1],,5,
5b,,,7^4[8:1]/6,,,3,,8,7^2[8:1],,,3,,6,7^4[8:1],,,3,,8,7,,,
2,,2,4-7[12:1],,5,4,,3,4,,,3,2,1,8,,15,,,2,1,,8v5[12:1],
1x,,2,1,,3v6[12:1]/8,,,2,1,,3/8v5[12:1],,,1,2,,38,,,1,6,,1bv4[12:1]/7b,
,,7,8,,6v3[12:1]/1,,,8,7,,6/1v4[12:1],,,7,8,,15,6b,7b,8b,1b,,,
3,4,3,6,5,6,2,3,2,7,6,7,1b,,1,3b,,3,6b,,6,8b,,8,
{48}2x,3,4,5,{24}6,8,8,8,{48}5,4,3,2,{24}1,7,7,7,
{48}2x,3,4,5,6,7,2x,3,4,5,6,7,2x,3,4,5,6,7,2x,3,4,5,6,7,
{24}1b/8b,,2,2^7[8:1],,7b,,,2,2,,{96}6b,5b,4b,3b,{2},{1},,,,E
Re:MASTER
- MASTER譜面を追加しました。修正等ありましたらよろしくお願いします。 -- けもがみ (2026-10-02 19:40:49)
最終更新:2026年10月02日 19:40