EASY
BASIC
ADVANCED
EXPERT
(200){4}
6h[2:1],,,,
4h[2:1],,,,
3h[2:1],,,,
5,5h[4:1],6,,
3h[2:1],,,,
5h[2:1],,,,
6h[2:1],,,,
4,4h[4:1],3,7,
5,34,4,56,
5,34,45,34,
4,56,5,34,
4,35,46,{8}3,3,
{4}4,65,5,43,
4,65,54,65,
5,43,4,65,
34,78,12,56,
7h[4:7]/2h[4:3],,,,
2,1,2,3h[1:1],
7,8,7,6h[1:1],
2,1,8,1h[4:1],
4,27,4,6h[1:1],
8,1,2,3h[1:1],
1,8,7,6h[2:1],
1,3h[2:1],8,6,
18,45,7,6,
1h[4:1],2h[4:1],3h[4:1],4,
7h[4:1],5,2h[4:1],4,
8h[4:1],7h[4:1],6h[4:1],5,
1-5[8:1],,8,4,
2-5[8:1],,7-4[8:1],,
2^5[2:1]/6^1[2:1],,,,
3^8[2:1]/7^4[2:1],,,,
2h[8:3],{8},6,{4}6,5,
4,3,,{8}8,8,
{4}8-5[4:1],,1-4[4:1],,
7,2^7[4:1],,,
7h[8:3],{8},3,{4}3,4,
5,6,,{8}3,3,
3h[8:3],,,4h[8:3],,,5h[4:1],,
6,,35,,46,,2,2,
1h[8:3],,,8h[8:3],,,7,7,
1,,8,,,,4,5,
6h[8:3],,,5h[8:3],,,3h[4:1],,
4,,56,,34,,6,6,
6^1[4:1],,,,,,3,3,
3^8[4:1],,,,,,4,5,
4h[8:3],,,5h[8:3],,,4h[4:1],,
{6}3,4,5,6b,5,4,
{8}
3h[8:3],,,4,,,5,,6,,7,,
6h[8:3],,,5,,,4,,3,,2,,
{4}
57,4,2,(205)13,5,7h[4:1],
6h[4:1],5h[4:1],4h[4:1],3h[4:1],
2b,,67,34,
8h[4:1]/1,2h[2:1],1,6h[2:1],
8,3,56,34,
1h[4:1]/8,7h[2:1],8,3h[2:1],
1,6,12,56,
78,3h[4:1]/4h[4:1],,57,
24,6h[4:1]/8h[4:1],,3h[4:1]/1,
5h[4:1],7h[4:1],1h[4:1],3h[4:1],
5b,,32,65,
1h[2:1]/8,3,7h[2:1],5,
2h[4:1],3,56,34,
7h[2:1]/1,5,2h[2:1],8^5[4:1],
,1^4[4:1],,5-8[1:1],
,,,,
(200),,3h[2:1],,
6h[4:3],{8},5,{4},3h[4:1],
4b,,32,65,
(204)
8h[2:1]/1,7,2h[2:1],3,
6h[2:1],8,4h[2:1],1,
5h[2:1],7,3h[2:1],2,
6,,(205)58,23,
14,67,,18,
5-1[4:1]/4-8[4:1],,,18,
78,12,56,34,
5b/4b,,67,34,
1h[2:1]/8,3,6h[2:1],7,
3h[2:1],2,5h[2:1],1,
4h[2:1],8,6h[2:1],8,
2^5[4:1],,7^4[4:1],,
3^6[4:3],,,,
(201),,1h[4:1]/5h[4:1],,
3h[2:1]/7h[2:1],,,8h[2:1]/4h[2:1],
,,2h[4:1]/6h[4:1],,
3^8[4:3]/7^4[4:3],,,,
,,,,
8h[4:1],,4h[4:1],,
2h[4:1]/5h[4:1],,4h[4:1]/7h[4:1],,
2^5[4:3]/6^1[4:3],,,,
,,,,
8,7,6,,
1,2,3,,
7h[4:3],5,3h[1:1],,
1,7,6h[2:1],,
2h[4:3],4,6h[1:1],,
8,5,3h[2:1],,
7h[4:1],2h[2:1],5h[2:1],,
8h[4:1],6h[2:1],5,,
1h[4:1],2h[2:1],4h[2:1],,
3h[4:1],6h[4:1],{8}4,4,5,5,
{1},,,,
E
MASTER
(200){8}
8h[8:3],,,7h[8:3],,,6h[2:1],,
5,,4,,,,1,,
1h[8:3],,,2h[8:3],,,3h[4:3],,
4,,5,,4,,8,,
8h[4:3],,,7,,,1h[2:1],,
2,,2,,,,6h[4:1],,
5h[8:3],,,8h[8:3],,,2h[4:3],,
3,,4,,5b,,,,
3,4,3,,6,5,6,,
2,3,8,7,5,6,4,,
7,8,6,,2,1,3,6,
4,5,7^4[8:1],,,,,,
3h[4:1],4,2,,6h[4:1],5,7,,
2,1,2,7,8,7,18,,
15,,,48,,,1-5[8:1],,
8-4[8:1],,2-5[8:1],,7-4[8:1],,,,
7,8,7^4[8:1],8,7,,3,4,
,1,7-4[8:1],,1^6[8:1],,,,
,6,5,6,5,,,1-6[8:1],
,1,,,8-4[8:1],8,,,
2,1,2^5[8:1],1,2,,6,5,
,3,4,,37,,3^8[4:1],,
8^5[4:1],,5-1[4:1],,1^4[4:1],,4-8[4:1],,
8^5[4:1],,5-1[4:1],,,,,,
8-3[8:1],8,2-6[8:1],2,7^4[8:1],7,,,
,3,4,2-5[8:1],6-3[8:1],,,,
,1,8-4[8:1],8,,,2-5[8:1],2,
,6-1[8:1],6,,2,1,18,,
1-6[8:1],1,7-3[8:1],7,2^5[8:1],2,,,
,6,5,7-4[8:1],3-6[8:1],,,,
8-3[8:1],8,,2-5[8:1],2,,4-7[8:1],4,
,6-1[8:1],6,,8b,,,,
7h[2:1],,8,,1,,4,3,
,4,3h[4:1],,2h[4:1],,1h[4:1],,
8h[2:1],,7,,6,,2,1,
,2,1-5[8:1],,1,,,,
2h[2:1],,1,,8,,5,6,
,1,6h[4:1],,7h[4:1],,8h[4:1],,
1,8,1,,8h[8:3],,7,6h[4:1],
,7,8h[4:1],,1b,,,,
1h[4:1],,3-7[4:1],,,,5,7,
,1,3,,7h[4:1],,6h[4:1],,
5h[4:1],,7-2[8:1],,,,5,3,
,1,7,,2,,1h[4:1],,
6h[4:1],,4-1[8:1],,,,8,2,
,5,1,,56,,34,,
3h[4:1],,4-8[8:1],,4,,,,
{6}1,8,7,6,5,4,
{8}
1,,,48,,,37,,26,,15,,
4/8b,,,2b/6,,,4b/8,,{12}12,,3,4,,6,
{8}5,,,34,,6,(205){4}5,12,6-2[4:1],
2^7[4:1],7-4[4:1],4-8[4:1],8^3[8:1],
6b,,4-8[8:1],,
2-6[4:1],6-2[4:1],2^7[4:1],,
6-2[4:1],2-6[4:1],6^3[4:1],,
1-4[8:1],7-3[8:1],5-1[8:1],,
6-1[8:1]/2-5[8:1],,1^6[8:1]/5^2[8:1],,
5,46,5,37,
28,1,1b/5b,1-5[8:1],
8-4[8:1]/1,1-4[8:1]/8,8-5[8:1]/1,2-6[8:1]/8,
2,,3^8[8:1],6^3[8:1],
7^2[8:1],,8,6-1[8:1]/1^6[8:1],
,,5-2[8:1]/2^5[8:1],,
{8}27,,,24,,,{4}57,
1-6[8:1]/2-6[8:1],,8-3[8:1]/7-3[8:1],,
1-5[2:1]/8-4[2:1],,,,
(200),,5h[8:7]/6,,
{8}1,,,3,,,5-1[8:1],,
{4},7-3[4:1],3-7[4:1],,
(204)
2-5[8:1],2/8-4[8:1],8/5-2[8:1],5,
7-4[8:1],7/1-5[8:1],1/4-7[8:1],4,
2-5[8:1],2/7-4[8:1],7/4-1[8:1],4,
8b,,(205){8}17,8,35,4,
{4}1-6[8:1],4-8[8:1],5-2[8:1],7-3[8:1],
1-5[8:1],3-7[8:1],1,1-4[8:1],
1b/8-5[8:1],8b/3-6[8:1],3b/7-2[8:1],7b/1^6[8:1],
1b,,68,13,
4-8[8:1],4/6-2[8:1],6/8-5[8:1],8,
7-3[8:1],7/5-1[8:1],5/3-6[8:1],3,
1-5[8:1],1/7-3[8:1],7/5-2[8:1],5,
5-8[4:1],,3-8[4:1],,
4-8[8:5],,,,
(201),,7h[2:1],,
1h[2:1],,2,2h[4:3],
,,8h[2:1],6^1[2:1],
{2}
,,
,,
3^8[4:1],5^2[4:1],
7^2[4:1],5^8[4:1],
2^5[2:1],,
,,
{8}
7,1-5[8:1],,1,3-7[8:1],,3,5-1[8:1],
,5,7-3[8:1],,7,8,1b,,
3,2,1^4[8:1],8,7,,6,5,
,3,4,,3-6[8:1]/7-2[8:1],,,,
5-1[8:1],,8-4[8:1],,,,,2-6[8:1],
,8-3[8:1],8,,4-7[8:1],4,,,
3,4,5^2[8:1],6,7,,1,8,
,8,1,,2-6[8:1]/7-3[8:1],,,,
2,1-5[8:1],,3,4,,7,8-4[8:1],
,6,5,,7-3[8:1]/5-1[8:1],,,,
1,2,3,,4,,6,5,
,7,8,,1,8,3,6,
{1},,
E
Re:MASTER
最終更新:2026年10月03日 22:26