アットウィキロゴ

M.S.SPlanet

BPM EASY BASIC ADVANCED EXPERT MASTER
145 2 4 6 9 10

EASY


BASIC


ADVANCED


EXPERT


MASTER

&title=M.S.S.Planet
&freemsg=
&wholebpm=145
&elements=32,12,12,24

&first=
&seek=
&wait=
&lv_1=
&lv_2=
&lv_3=
&lv_4=
&lv_5=10
&inote_1=
&inote_2=
&inote_3=
&inote_4=
&inote_5=(145){16}
8h[4:1],,,,1h[4:1],,,,7,2,6,3,5,,4,,
3,,2,,1,,8,,
{4}7h[4:3],,,8>7[4:6],,,,,,,,,,,
{16}
81,,,3,4,,25,,81,,,6,5,,74,,
18,,,4,5,,36,,18,,,5,4,,36,,
18,,,2,4,,36,,18,,,7,5,,36,,
18,,,5,4,,36,,6q3[8:1],,6,,5,,5,,
34,,,7,2,,56,,78,,,3,6,,12,,
56,,,2,7,,34,,12,,,6,3,,78,,
13,,,2,7,,68,,24,,,3,6,,57,,
82,,,1,5,,46,,6q4[8:1],,6,,5,,5,,
6b,,,,1-7[8:1]/4-1[8:1],,,,,,,,1-6[8:1]/6-3[8:1],,,,
,,,4-1[8:1],,,5,,5,,,,6,,,,
,,,,8<5[4:1],,,,5<2[4:1],,,,2<7[4:1],,,,
3,,,4,,,5,,6>2[8:1],,,,3,,,,
,,,,7-3[8:1],,,,5-1[8:1],,,,8,,,,
6,,,4,,,2,,8s4[4:1],,,,8,,,,
,,,,1q6[8:1],,,,8p3[8:1],,,,,,,,
7,,,8,,,2,,1-6[8:1]/2-5[8:1],,,,,,,,
1,,5,,3,7,,,8/4,,,3/7,,,2/6h[1:1],,
,,7,,,2,,,5,,,1,,,4,,
,,8,,2,6,,,15,,,26,,,3h[1:1]/7,,
,,2,,,7,,,4,,,8,,,5,,
,,7,,4,5,,,1,,,7,,,3h[1:1],,
,,1,,,5,,,8,,,4,,,7,,
,,,,37,,,,4p7[12:1]/8p3[12:1],,,,
,,,,73,,,85,,,15,,26,,,,3b/7-2[4:1],,,,
{8}
2-5[4:1],,5-1[4:1],,1-4[4:1],,4-7[4:1],,
7^2[4:1],,2^5[4:1],,5^8[4:1],,,,
{16}
2h[4:1],,,,8h[16:3],,,1h[16:5],,,,,,,,,
1q5[4:1]/5q1[4:1],,,,,,,,,,,,,,,,
1/8-5[2:1],,,,2,,,2,,,3,,3,,,,
5/4-1[2:1],,,,6,,,6,,,7,,7,,,,
1,,2,,4,3,,8h[16:5],,,,,,,,,
8,,7,,5,6,,1h[16:5],,,3,,4,,1,,
1,,2,,3^8[16:1],4,,4,,,5,,6,,7,,
8,,7,,6^1[16:1],5,,5,,,4,,3,,2,,
3,,4,,8,7,,2h[16:5],,,,,4,,,,
6,,5,,1,2,,7h[16:5],,,,,5,,,,
1,,2,,5,4,,5h[16:3],,,4,,56,,34,,
8,,7,,4,5,,4h[16:3],,,5,,34,,56,,
27,,27,,18,18,,1h[16:5]/8h[16:5],,,,,,,,,
{8}
7h[4:2],,2-6[16:1],,2b,,,,
1^4[12:1]/5^8[12:1],,,,5^2[12:1]/1^6[12:1],,,,
1,2,3,4,6/5^2[12:1],,6h[4:1],,
5q2[6:1],,,,4p7[6:1],,,,
1,6,3,7,2-5[12:1]/7-4[12:1],,2b/7b,,
3q1[10:1],,,,7q5[10:1],,,,
15,26,37,48,1-6[12:1]/5-2[12:1],,,,
2-4[10:1],,6-8[10:1],,4-6[10:1],,8-2[10:1],,
,,4-1[12:1]/5-8[12:1],,4b/5b,,,,
3v1[12:1]/6v8[12:1],,,,
{16}
18,27,36,,45,,,,
{8}
1^6[12:1]/5^2[12:1],,,,6v8[12:1]/2v4[12:1],,,,
2p4[14:1],,,,7q5[14:1],,,,
2-5[12:1],2,8-4[12:1],8,1-5[12:1],1,7,7,
4-2[12:1]/8-6[12:1],,,,
{16}
18,27,36,,45,,84,,
{8}
73,62,51,84,8-4[12:1]/6-2[12:1],,8b/6b,,
8h[4:3],,4,,6,,2,,
3b/4b,7b/8b,4b/5b,1b/2b,5b/6b,,8-4[12:1],,
3<5[10:1],,,,
{16}
18,27,36,,4b/5-7[12:1],,,,
5b/1-5[12:1],,,,1b/8-4[12:1],,,,
8b/2-6[12:1],,,,2b,,,,
1-5[12:1]/8-4[12:1],,,,,,,,
12,83,74,,5b/6b,,,,
7^2[12:1]/3^6[12:1],,,,7b/3b,,,,
2p5[12:1]/6p1[12:1],,,,,,,,
1-4[12:1]/8-5[12:1],,,,,,,,
78,16,25,,3b4b,,,,
1-6[12:1]/8-3[12:1],,,,1b/8b,,,,
5-8[12:1]/4-1[12:1],,,,4b/5b,,,,
3v4[12:1]/6v5[12:1],,,,,,,,
45,36,27,,1b/8b,,1q3[10:1],1,
,,,,8p6[10:1],8,,,
{4},,,4<5[4:6],
{1},,,

E

名前:
コメント:

タグ:

+ タグ編集
  • タグ:
最終更新:2014年04月07日 17:14