| アーティスト |
COSIO(ZUNTATA)「グルーヴコースター」より |
EASY
BASIC
ADVANCED
EXPERT
MASTER
(192){1}2q5[4:11],,,,{8}12,,4,3,,5,4,,,6,5,6,,1,8,1,
78,,5,6,,4,5,,,3,4,3,{16}8,1,{8}8,3,4,
26,,1,37,,8,26,3,,5,6,5,4,5,6,5,
48,,7,15,,2,48,7,,4,3,4,{16}5,4,{8}5,4,3,
24,3,4,57,6,5,24,3,,5,46,3,{16}2,1,{8}2,3,4,
37,6,5,26,3,4,37,6,,1,28,7,{16}1,8,1,8,{4}2b/7b,
34,45,56,45,34,45,56,{8}46,35,
{4}24,36,57,18,{8}34,45,56,,56,{16},4,{8}5,34,{4}
45,46,25,37,26,48,{8}15,26,37,48,
26,3,48,7,15,2,37,6,
{12}1,5,3,8,2,6,4,7,2,5s1[4:5],4,8h[12:25],{4},,,,,,,,
{16}1,2,3,4,56,,7,5,,6,4,,5,3,,4,2,,2,,
34,,2,4,,3,5,,4,6,,5,7,,7,,
56,,6,8,,7,1,,8,2,,1,3,,34,,
2,1,2,1,,7,8,7,8,,1,8,2,7,3,6,
45,,2,5,,3,6,,4,7,,5,8,,8,,
27,,7,4,,6,3,,5,2,,4,1,,1,,
27,,1,5,,2,6,,3,7,,4,8,,27,,
3,4,3,4,,6,5,6,5,,4,5,3,6,2,7,
{8}18,,3,5,2,,18,,6,4,7,,45,,
37,,1,5,37,,26,,8,4,26,,25,47,36,,18,2b/7b,,,
38,2,6,5,47,,16,7,3,4,25,,36,,
71,26,35,48,26,,28,37,46,15,37,,15,37,26,
(96){8}4h[1:1]/8h[1:1],(192){4},,,,,,,,,,,,,,18,
{12}37,6,5,48,3,2,15,8,7,{2}2b/6b,
{16}
27,,3,4,,2,5,2,5,,2,,8,1,8,,
27,,6,5,,7,4,7,4,,7,,1,8,1,8,
27,,4,5,,3,6,3,6,,3,,8,1,8,,
3,6,3,6,,4,5,4,5,,4,5,6,7,8,1,
26,,7,8,,6,1,6,1,,6,,4,5,4,,
37,,2,1,,3,8,3,8,,3,,5,4,5,4,
36,,8,1,,7,2,7,2,,7,,4,5,4,,
6,3,6,3,,5,4,5,4,,5,4,3,2,1,8,
37,,3,4,,2,1,2,1,,2,,5,4,5,,
26,,6,5,,7,8,7,8,,7,,3,6,3,6,
45,,4,5,,2,7,2,7,,2,,8,1,8,,
3,6,3,6,,4,5,4,5,,4,5,6,7,8,1,
26,,4,5,,3,4,3,25,,3,,6,4,5,,
37,,5,4,,6,5,6,47,,6,,3,5,4,5,
2,3,4,5,6,7,8,1,4,3,2,1,8,7,6,5,
47,8,1,2,36,5,4,3,25,6,7,8,14,3,2,1,
{4}48,48,25,25,46,46,35,{8}35,4,
{4}35,46,24,57,{16}34,,,56,,,34,,46,,3,5,3,,6,4,
{8}6,6,46,46,3,3,35,35,78,78,12,12,{16}2,5,2,,7,4,7,,
{12}3,4,3,25,,3,6,5,6,47,,6,
{16}1,2,3,4,5,6,7,8,{32}1,2,3,4,5,6,7,8,1,2,3,4,5,6,7,8,{4},,1b/8b,
{16}1,,8,1,8,1,7,2,5,4,5,4,6,3,6,3,
8,,1,8,1,8,2,7,4,5,4,5,3,6,3,6,
1,5,2,6,3,7,4,8,1,8,2,7,1,8,2,7,
1,2,3,4,1,8,7,6,3,4,5,6,7,8,1,2,
6,,4,5,4,5,3,6,1,8,1,8,2,7,2,7,
4,,5,3,5,3,6,2,8,1,8,1,7,2,7,2,
8,4,7,3,6,2,5,1,6,3,5,4,6,3,5,4,
8,7,6,5,8,1,2,3,6,5,4,3,2,1,8,7,
1,2,3,4,{12}8,8,8,{16}5,4,3,2,{12}6,6,6,1,1,1,
{16}7,6,5,4,3,2,1,8,
{12}4,4,4,{16}8,7,6,5,{12}1,1,1,{16}4,5,6,7,
{12}3,3,3,{16}6,7,8,1,2,3,4,5,1,8,7,6,5,4,3,2,
8,7,6,5,{12}1,1,1,{16}4,5,6,7,{12}3,3,3,8,8,8,
{16}2,3,4,5,6,7,8,1,{12}5,5,5,
{16}1,2,3,4,{12}8,8,8,{16}5,4,3,2,{12}6,6,6,
{16}1,2,3,4,5,6,7,8,{32}7,6,5,4,3,2,1,8,7p4[4:6],6,5,4,3,2,1,8,
{4},,,,,,,,1b/8b,,,,,18,27,36,
{8}45,4,36,6,27,2,18,8,
{16}2,6,3,7,4,8,5,1,26,15,48,37,2-6[2:1]/6,15,48,37,{4},,,
{16}3/7-3[8:1],48,51,{1}26,,,,E
Re:MASTER
- SLIDEの速度の修正を行いました。 -- けもがみ (2026-02-04 19:20:48)
- BPMを調整しました。 -- けもがみ (2026-02-17 09:58:03)
最終更新:2026年10月04日 08:51