| 曲名 |
ちんどんジャズ |
| 制作者名 |
デクナッツリンク |
| 音源 |
不明 |
| 譜面動画 |
|
| 制作者コメント |
なんとなくさ。 |
EASY
BASIC
ADVANCED
EXPERT
&inote_4=
(115){8}
1,2,3,4,5,5b,5b,,
5,4,3,2,1,2b,2b,,
1,2,3h[8:1],,5,6,7h[8:1],,
1b,,2b,,3b,3b,4b,,
1,2,3,4,5,5b,5b,,
5,4,3,2,1,2b,2b,,
1,2,3h[8:1],,5,6,7h[8:1],,
1b,,2b,,3b,3,4b,,
(213){4}
1,2,,3,
4,5,,6,
1,2,,3,
7,8,,1,
1,2,3,4,
1,2,3,4,
1b,5b,3b,7b,
81,,4b/5b,,
1,2,3,4,
4q6[7:2],,,,
5,6,7,8,
8p6[7:2],,,,
1,2,3,4,
4,5,6,7,
1,2,3,4,
4v5[7:2],,,,
1,2,3,4,
3q5[7:2],,,,
5,6,7,8,
5q7[7:2],,,,
1,2,3,4,
4,5,6,7,
1,2,3,4,
4q5[7:2],,,,
1,82,2,13,
3,4,5,6,
5,67,4,23,
1,2,3,4,
1,82,2,13,
3,4,5,6,
5,67,4,23,
1s5[8:3],,,,
{12}
1,,,2,,,1,,1,2,,,
3,,,4,,,5,,5,6,,,
1,,1,2,,2,3,,3,4,,4,
5h[12:3],,,6h[12:3],,,7h[12:3],,,8b,,,
1,,,2,,,1,,1,2,,,
3,,,4,,,5,,5,6,,,
1,,1,2,,2,3,,3,4,,4,
3h[12:3],,,2h[12:3],,,1h[12:3],,,8b,,,
1h[12:3],,,2h[12:3],,,7,,8,1,,2,
5h[12:3],,,6h[12:3],,,3,,4,5,,6,
1,,2,3,,4,5,,6,7,,8,
7p5[17:7],,,,,,,,,,,,
1h[12:3],,,2h[12:3],,,7,,8,1,,2,
5h[12:3],,,6h[12:3],,,3,,4,5,,6,
1,,2,3,,4,5,,6,7,,8,
2q4[17:7],,,,,,,,,,,,
{4}
3,5,6,4,
1,2,3,4,
7,2,4,6,
1,2,3,4,
1,1,2,2,
3,3,4,4,
5,5,6,6,
7,7,8b,8b,
(214)
5,4,4,5,
(215)
6,6,7,7,
(217)
1,2,3,4,
(216)
2b,4,6,8,
(218)
5,4,4,5,
6,6,7,7,
1,2,3,4,
2b,4,6,8,
(221.95)
12,34,56,78,
(228.45)
12,34,56,78,
(232.2)
12,34,56,78,
(232)
8b/1b,,,,
(227.14)
12,34,56,78,
(227.51)
12,34,56,78,
(232)
12,34,56,78,
(233.353)
8b/1b,,,,
(230){4}
2-5[5:2],4,6-1[6:2],8,
3-8[5:2],5,4-7[6:2],1,
1v5[5:2],2,3v7[6:3],4,
2z6[7:2],,1b,1b,
2-5[5:2],4,6-1[6:2],8,
3-8[5:2],5,4-7[6:2],1,
1v5[5:2],2,3v7[6:3],4,
6z2[7:2],,8b,8b,
2-5[5:2],4,6-1[6:2],8,
3-8[5:2],5,4-7[6:2],1,
1v5[5:2],2,3v7[6:3],4,
3z7[7:2],1b,1b,1b,
2-5[5:2],4,6-1[6:2],8,
3-8[5:2],5,4-7[6:2],1,
1v5[5:2],2,3v7[6:3],4,
8q1[10:5]/1b,,,,
,,,,,,,,,,,,
MASTER
(115){16}
4,,5,5,2,,5,5,8,2,4,1,3,,5,,
1,,5,5,2,,5,5,5,2,4,1,3,,7,,
1,2,3,,1,2,3,,1,2,3,,3,2,1,,
1,2,3,4,5,6,7,8,51,,37,,24,,68,,
4,,5,5,2,,5,5,8,2,4,1,3,,5,,
1,,5,5,2,,5,5,5,2,4,1,3,,7,,
1,2,3,,1,2,3,,1,2,3,,3,2,1,,
1,2,3,4,5,6,7,8,51,,37,,24,,68,,
ここから12分
(213){12}
1,,2,3,,4,1,2,3,4,5,6,
5,,6,7,,8,1,2,3,6,7,8,
1,2,3,4,,5,1,2,3,5,6,7,
1,,2,3,,4,6,,8,7,,5,
1,,2,3,,4,5,,6,7,,8,
1,,2,3,,4,5,,6,7,,8,
1,,1,2h[12:3],,,4h[12:3],,,8b,,,
1-5[14:5]/8-4[14:5],,,,,,,,,,,,
1,,2,7,,8,7,,2,1,,8,
1,,2,3,,4,1,2,3,4b,,,
1,,2,7,,8,7,,2,1,,8,
1,,2,3,,4,1,2,3,4b,,,
7,,6,4,,5,7,,7,8,,8,
1,,2,5,,4,4,,5,4,,6,
1,2,3,1,2,3,1,2,3,1,2,3,
1,,2,3,,4,5,,6,8b/7b,,,
1,,2,7,,8,7,,2,1,,8,
1,,2,3,,4,1,2,3,4b,,,
1,,2,7,,8,7,,2,1,,8,
1,,2,3,,4,1,2,3,4b,,,
7,,6,4,,5,7,,7,8,,8,
1,,2,5,,4,4,,5,4,,6,
1,2,3,1,2,3,1,2,3,1,2,3,
1,,2,3,,4,5,,6,8b/7b,,,
12,,12,34,,34,7,8,1,5,6,7,
12,,12,34,,34,7,8,1,5,6,7,
12,,12,34,,34,7,8,1,5,6,7,
12,,56,34,,78,1,2,3,4h[12:2],,,
12,,12,34,,34,7,8,1,5,6,7,
12,,12,34,,34,7,8,1,5,6,7,
12,,12,34,,34,7,8,1,5,6,7,
7p4[14:6],,,,,,,,,,,,
1,,3,5,,7,1,,3,5,,7,
2,,4,6,,8,2,,4,6,,8,
1,,2,3,,4,5,,6,7,,8,
1,2,3,1,2,3,1,2,3,1b,,,
1,,3,5,,7,1,,3,5,,7,
2,,4,6,,8,2,,4,6,,8,
1,,2,3,,4,5,,6,7,,8,
1,2,3,1,2,3,1,2,3,8b,,,
4,,5,4,,5,6,7,8,6,7,8,
1,,2,3,,4,1,2,3,1,2,3,
1,,2,4,,5,5,5,5,4,4,4,
1,1,1,2,2,2,3,3,3,4,4,4,
4,,5,4,,5,6,7,8,6,7,8,
1,,2,3,,4,1,2,3,1,2,3,
1,,2,4,,5,5,5,5,4,4,4,
5,5,5,6,6,6,7,7,7,8b,,,
1,,2,3,,4,5,,6,7,,8,
8p5[15:6],,,,,,,,,,,,
1,,2,3,,4,5,,6,7,,8,
1q4[15:6],,,,,,,,,,,,
1,,2,3,,4,5,,6,7,,8,
8s4[15:6],,,,,,,,,,,,
1,,2,3,,4,5,,6,7,,8,
1s5[15:6],,,,,,,,,,,,
(214)
1,,2,3,,4,5,,6,7,,8,
(215)
1,2,3,1,2,3,1,2,3,1,2,3,
(217)
1,,2,3,,4,5,,6,7,,8,
(216)
2b,,,4b,,,6b,,,8b,,,
(218){4}
5^3[5:1],,1^3[5:1],,
7^4[5:1],,8^2[5:1],,
1^4[5:1],,4^7[5:1],,
7<1[5:3],,,,
(221.95)
8p3[5:1],,1q6[5:1],,
(228.45)
2q5[7:2],,,,
(232.2)
12,34,56,78,
(232)
8b/2h[4:3],6b,4b,,
(227.14)
7q6[6:1],,2p3[6:1],,
(227.51)
7p6[6:2],,,,
(232)
12,34,56,78,
(233.353)
5-8[7:2]/4-1[7:2],,,,
(230)
8-2[6:1],2-4[6:1],4-6[6:1],6-8[6:1],
6q3[6:1],,7p2[6:1],,
8-2[6:1],2-4[6:1],4-6[6:1],6-8[6:1],
6p4[6:3],,,,
1-3[6:1],3-5[6:1],5-7[6:1],7-1[6:1],
5p8[7:2]/4q1[7:2],,,,
1-3[6:1],3-5[6:1],5-7[6:1],7-1[6:1],
1>1[6:3],,,,
4>8[6:1],8>4[6:1],4>8[6:1],8>4[6:1],
4q5[6:2],,,,
5<1[6:1],1<5[6:1],5<1[6:1],1<5[6:1],
5p4[6:2],,,,
12,34,56,78,
12,34,56,78,
{12}
54,,54,54,,,54,,,5b/4b,,
5p4[18:9]/4>5[18:9],,,,,,
,,,,,,,
,,,,,,,
,,,,,,,
,,,,,,,,,,,
,,,,,,,,,,,,,,,,
##comment
↑「#」を一個消して、コピーする。
- 間違えて、記載してしまったので差し戻しをお願いしたい -- はぴぷり (2014-08-07 17:39:17)
最終更新:2015年02月17日 19:41