アットウィキロゴ

風も空もきっと・・・(創作譜面:レジスチル)

曲名 風も空もきっと・・・
制作者名 レジスチル
音源 ---
譜面動画(EXPERT)
譜面動画(MASTER)
制作者コメント セーラーーースターーーズ!
BPM EASY BASIC ADVANCED EXPERT MASTER
93 - - - 7 10

EASY


BASIC


ADVANCED


EXPERT

&inote_4=
(93){4}
,,
1,3,5,7,
3,5,7,8,
1,2,3,4,
5,6,7,87,
1,2,3,,
4,2,6,,
1,2,3,,
1,2,3,4,
56,7/8b,

{8}
1h[8:2],,2,,3,3,4,,
4h[8:2],,5,,6,6,7,,
7h[8:2],,8,,1,2,3,,
5h[8:2],,6,,,4b,4b,4b,

1,,2,1,,3,4,,
5,,5,6,,7,8,,
1,,3,4,56,,78,,
8p5[18:10],,,,,,1b,,

1,,3,,2,4,5,,
6v8[8:3],,,,,,5b,,
8,,6,,5,7,5,,
1v3[8:3],,,,,,4b,,
1,,3,,2,4,5,,
7v5[8:3],,,,,,8b,,
8,,6,,5,7,5,,
2v4[9:2],,,,7v2[9:2],,1b,,

1,,3,,2,4,5,,
6q8[8:3],,,,,,5b,,
8,,6,,5,7,5,,
1q3[8:3],,,,,,4b,,
1,,3,,2,4,5,,
7p5[8:3],,,,,,8b,,
8,,6,,5,7,5,,
2q4[9:2],,,,7q2[9:2],,,,
5p4[11:8],,,,,,,,
,,,,,,,,
,,,,,,,,

MASTER

(93){8}
,,8b,8b,
1,1,2,2,3,3,4,4,
5,5,6,6,7v5[4:1],,2v5[4:1],,
8,8,6,6,4,4,2,2,
1,2,3,4,5h[8:1],,6h[8:1],7b,

1,1,2,2,3,3,4,4,
5,5,6,6,7v1[4:1],,2v4[4:1],,
8,8,6,6,4,4,2,2,
1,2,3,4,5h[8:1],,6h[8:1],7b,
12,34,56,78,

{24}
8,,,2,,,1,,3,4,,2,
7,,,8,,,5,,6,7,,8,
1,,,6,,,2,,4,6,,8,
1,,,3,,,5,,5,7,,,

87,,4,2,,,1,,3,4,,2,
75,,,8,,,5,,6,7,,8,
13,,,6,,,2,,4,6,,8,
51,,,3,,,5,,5,7,,,


1,,,3,,,5,,,7,,,
7,,7,5,,5,3,,3,1,,1,
2,,,4,,,6,,,8,,,
8,,8,6,,6,4,,4,2,,2,
{8}
3v5[11:16]/7v1[11:16],,,,,,,,
,,,,,,,,

7p6[14:3],,,,2q3[14:3],,,,
5-1[11:3]/7v2[11:3],,,,,,,,

12,34,56,78,12,34,56,78,
1b,2b,3b,4b,5b/1b,,7b/3b,,

5p4[14:3],,,,8q1[14:3],,,,
8-4[11:3]/2v5[11:3],,,,,,,,

12,34,56,78,12,34,56,78,
1b/3b,,5b/7b,,2b/4b,,6b/8b,,

7p6[14:3],,,,2q3[14:3],,,,
5v2[11:3]/7v5[11:3],,,,,,,,

12,34,56,78,12,34,56,78,
1b,2b,3b,4b,5b/1b,,7b/3b,,

5p4[14:3],,,,8q1[14:3],,,,
5v3[11:3]/3v8[11:3],,,,,,,,

12,34,56,78,12,34,56,78,
1b/3b,13,5b/7b,57,2b/4b,24,6b/8b,86,
8b/1>1[13:10],,,,,,,,
,,,,,,,,
,,,,,,,,

タグ:

+ タグ編集
  • タグ:
最終更新:2015年03月04日 01:25