アットウィキロゴ

Caliburne ~Story of the Legendary sword~

アーティスト Project Grimoire

BPM EASY BASIC ADVANCED EXPERT MASTER Re:MASTER
190 4 5 9+ 12+ 14 -

EXPERT MASTER Re:MASTER
譜面制作者 Jack vs mai-Star はっぴー -

EASY


BASIC

(190.0){1},
{4},1,,,
{4}1,,,2,
{2},2,
{4},3,,,
{4}3,,,4h[4:3]/5h[4:3],{1},
{4},6,,,
{4}6,,,7,
{2},7,
{4},7/8,,,
{4}1/2,,,8h[4:3],{1},
{4},1,1,,
{4}1,1,,8,
{4}8,,8,8,
{4},7,7,,
{4}7,7,,6,
{4}6,,5/6,5/6,
{4},5,5,,
{4}4,4,,3,
{4}3,,3/4,3/4,
{4},3,3,,
{4}4,4,,5,
{4}5,,5/6,5/6,
{4},7-4[4:5],,,{1},,
{4},2-5[4:5],,,{1},,
{4},6-3[4:5],,,{1},,
{4},2-7[4:5],,,{1},,
{4},7,7,,
{4}6,6,,5,
{4}5,,4,4,
{4},3,3,,
{4}2,2,,1h[4:3]/8h[4:3],{1},
{4},2,2,,
{4}3,3,,4,
{4}4,,5,5,
{4},6,6,,
{4}7,7,,1h[4:3]/8h[4:3],{1},
{4},1h[8:3]/2h[8:3],,,
{4}1/2,,,7h[8:3]/8h[8:3],
{2},7/8,
{4},1,,2,
{4}2,,3,3,
{2},4/5,
{4},5h[8:3]/6h[8:3],,,
{4}5/6,,,3h[8:3]/4h[8:3],
{2},3/4,
{4},5,,6,
{4}6,,7,7h[4:3],{1},
{4},8h[4:3],,,
{4}1,,,1h[4:3],
{2},8,
{4},7h[4:3],,,
{4}8,,,2h[4:3],
{2},1,
{4},2,,3/4,
{4}3/4,,,4,
{4},5/6,5/6,,
{4},6,,7/8,
{4}7/8,,,1h[4:3]/8h[4:3],{1},
{4},1-6[4:5]/2-5[4:5],,,{1},,
{4},7-4[4:5]/8-3[4:5],,,{1},,
{4},1/2,,2,
{4}2,,,7/8,
{4},7,7,,
{4},1,1,,
{4}8,8,,7h[4:3],
{2},8,
{4},2h[4:3],,,
{4}1,,,8h[4:3],
{2},1,
{4},1h[4:3],,,
{4}8b,,,7,
{4}7,7,6,,
{4},6,6,6,
{4}5,,,4/5,
{4},3/6,3/6,,
{4}2/7,2/7,,1/8,
{4}1b/8b,,,2,
{4}2,2,3,,
{4},3,3,3,
{4}4,,,5,
{4}5,5,6,,
{4},7h[4:3],,,
{4},,,1h[4:3]/8h[4:3],{1},
{4},2b/7b,,,
{1},
{128},,,,,,,,,,,,,,,,,,,,,,,,,,,,,,,,,,,,,,,,,,,,,,,,,,,,,,,,,,,,,,,,,2,,,,,,,,,,,,,,,,,,,,,,,,,,,,,,,,,,,,,,,,,,,,,,,,,,,,,,,,,,,,,,,
{64},,,,,,,,,,,,,,,,,,,3,,,,,,,,,,,,,,,,,,,,,,,,,,,,,,,,,,,,,,,,,,,,,
{128},,,,,,,,,,,,,,,,,,,,,4h[64:105],,,,,,,,,,,,,,,,,,,,,,,,,,,,,,,,,,,,,,,,,,,,,,,,,,,,,,,,,,,,,,,,,,,,,,,,,,,,,,,,,,,,,,,,,,,,,,,,,,,,,,,,,,,
{1},
{64},,,,,,,,,,,,,,,,,,,,,,,4/5,,,,,,,,,,,,,,,,,,,,,,,,,,,,,,,,,,,,,,,,,
E

ADVANCED

(190.0){1},
{4}2,2h[2:1],,1-5[4:1],
{4},,7,7h[2:1],
{4},8-4[4:1],,,
{4}3,3h[2:1],,4,
{4}4h[2:1],,5,5h[2:1],
{4},6,3,1/8,
{4},4h[2:1],,3-7[4:1],
{4},,6,5h[2:1],
{4},6-2[4:1],,,
{4}7,1/8,2,2,
{4}1/8,7,7,1/8,
{4}2/7,3/6,4/5,2b/7b,
{4},3,3,2/4,
{4}1,1,2/8,6,
{4}6,5/7,8,8,
{4}1/7,3,4,2/5,
{4}6,5,4/7,8,
{4}1,2/7,3/6,1/8,
{8},,2/7,,1,8,1,,
{8}2/7,,3,4,3,,4/5,,
{8}6,5,6,,2/7,,8,1,
{8}8,,2h[2:1],,4,4,4,,
{8}7h[2:1],,5,5,5,,1,8,
{8}1,8,1,8,2,7,2,7,
{1}2q4[4:3],
{2},7p5[4:3],{1},
{1}1q3[4:3],
{2},8p6[4:3],{1},
{4}1h[2:3],7-3[2:1],,,
{4},,8h[2:3],2-6[2:1],{1},
{4}2h[2:3],4-8[2:1],,,
{4},,7h[2:3],5-1[2:1],{1},
{4}2,3,3,3/4,
{4}6,6,5/6,2,
{4}2,2/3,7,7,
{4}6/7,3,3,2/4,
{4}6,6,5/7,4,
{4}5,3/6,2/7,1/2,
{4}7/8,1,2,3/8,
{4}4,5,3/6,7,
{4}8,1/6,2,3,
{4}4,1/5,2/6,3/7,
{8}4/8,,3/7,,2/6,,1,8,
{8}1,8,1,8,1,,2/7,,
{8}3/6,,4h[8:3],,,5,5,,
{4}2-6[16:3],,,5h[8:3],
{8},4,4,,7-3[16:3],,,,
{4},3,4,2/5,
{4}6,5,4/7,8,
{4}1,2/7,3,6,
{8}4/5,,3h[8:3],,,4,4,,
{4}1-5[16:3],,,6h[8:3],
{8},5,5,,8-4[16:3],,,,
{4},2,1,3/8,
{4}7,8,1/6,2/7,
{4}3/6,4v2[2:1]/5v7[2:1],,,
{8},,3h[8:3],,,4,4,,
{4}5,4,2/7,6h[8:3],
{8},5,5,,2/7,,,,
{8}1,8,1,,2/7,,3/6,,
{2}4h[8:3]/5h[8:3],4^1[2:1]/5^8[2:1],
{2},2/7,
{8}4,5,4,,5/6,,5/6,,
{4}1/8,3/4,4/3>6[2:1],,
{2},2/7,
{4}1-6[4:1]/2-5[4:1],,,7-4[4:1]/8-3[4:1],
{2},4^1[8:3]/5^8[8:3],
{4},,2/7,3/6,
{4}4/5,1b/8b,,,
{4},,2/3,4/5,{1},
{4}6/7,4/5,,,
{4}1-5[4:1]/2-5[4:1],,,7-4[4:1]/8-4[4:1],
{2},1v4[16:3]/8v5[16:3],
{4},6,6,5/7,
{4}8,8,1/7,3,
{4}3,2/4,1,1,
{4}2/8,3,4,2/5,
{4}6,5,4/7,3,
{4}4,1/7,6,5,
{4}2/8,3,4/5,7/8,
{4}6,4/5,1/2,7/8,
{4}5/6,3/4,1/2,3/4,
{8}5/6,,4,5,4,5,4,,
{2}2b/7b,3-8[16:3],
{8},7,7-4[16:3],,,,,,
{8}2-5[16:3],,,,,6,6-1[16:3],,
{8},,,,1,8,1h[2:1],,
{4},8,7,4,
{4}3/5,2,5,4/6,
{4}2/5,4/7,1/8,2h[8:3]/7h[8:3],
{4},2-5[4:1]/7-4[4:1],,,
{4}3/6,1/2,7/8,4/5,
{4}3-8[4:1]/6-1[4:1],,,2/7,
{8}4/5,4/5,4/5,,3/6,,1/8,1/8,
{8}1/8,,3,3,3,3,2/4,,
{8}6,6,6,6,5/7,,3,4,
{8}5,6,7,8,1,2,3,4,
{8}5,6,2b/7b,,,,,,
{1},
{8},,1,8,1h[8:3],,,8,
{32}8,,,,,,,,,7,,,,,,,,,6,,,,,,,,,5,,,,,
{32},,,,,4>5[32:67],,,,,,,,,,,,,,,,,,,,,,,,,,,
E

EXPERT

(190){8}
2,,2h[8:3],,,,2q5[2:1],,,,,,7,,7h[8:3],,
,,7p4[2:1],,,,,,2,3,4h[8:9],,,,6,,
5h[8:3],,,,4q2[2:1]/5p7[2:1],,,,,,,1,8,,27,,
,,34,,7,8,7,,56,,2,1,2,,45,,
18,27,36,,15,,48,,,,24,3,3,3,24,,
57,6,6,6,57,,18,27,36,45,27,,36,,18
,,,,2-5[4:1],,1-6[4:1],,,,8-3[4:1],,7-4[4:1],,,,
1-5[4:1],,8-4[4:1],,,,2-6[4:1],,7-3[4:1],,,,2^5[4:1],,1^6[4:1],,
,,1^4[4:1],,8^5[4:1],,,,8^3[4:1],,7^4[4:1],,,,3v6[4:1],,
,,15,,28,1,1,1,28,,24,3,3,3,24,,17,8,8,8,17,,57,6,
6,6,57,,25,3,4,2,15,,47,6,5,7,48,,
16,16,27,27,38,38,27,27,36,36,1b/8b,,4>5[4:3],,,,
,,,,,,6q3[2:1],,,,,,,,1,,
2,,3,,4q1[4:1]/8^5[4:1],,,,,,8,,7,,
6,,1q6[4:1]/5q2[4:1],,,,,,5,,6,,7,,4p7[4:1]/8p3[4:1],,
,,,,4,,3,,2,,1p4[4:1]/5^8[4:1],,,,,,
13,,68,,3^6[4:1]/7p2[4:1],,,,,,1-5[4:1]/8-4[4:1],,,,,,
45,,18,27,3p6[2:1]/6<3[2:1],,,,,,,,,,13,,
57,,26,,48,,2,1,2,,68,,24,,37,,15
,,7,8,7,,13,,68,,24,,57,,18,27,36
,,18,,15,26,37,,45,,48,37,26,,1,2,3,4
,15,,28,,45,,17,,8,7,6,5,48,,17,,45
,,28,,17,17,68,68,35,,28,28,13,13,46,,
36,27,8b/1>8[4:3],,,,,,,,,,3h[4:1],,4,25,
,,3/4-8[8:1],,7,,,,6h[4:1],,5,47,,,6/5-1[8:1],,
2,,,,2q6[4:1],,1,,8,,7p2[4:1],,8,,1,,3p7[4:1]
,,4,,5,,6q3[4:1],,5,,4,,2h[4:1],,3,14,
,,2-6[8:1]/3-8[8:1],,,,,,7h[4:1],,6,58,,,6-1[8:1]/7-3[8:1],,
,,,,3h[4:1],,2,4,15,,6h[4:1],,7,5,48,,2p7[2:1]
,,,,,,6p3[2:1],,,,,,2h[8:3],,,4,3^6[4:1],
,6^1[4:1],,1^4[4:1],,4,,7h[8:3],,,5,6<3[8:3],,,,,
,4,3,2h[4:1],,8h[4:1],,6h[4:1],,4h[2:1],,,5,5,,1q3[8:3],,,,,,8p6[8:3]
,,,,,,1h[4:1],,3h[4:1],,5h[4:1],,8h[4:1],,6h[4:1],,4h[4:1],,8h[8:3],,,1
,8^3[8:1]/1^6[8:1],,,,,,6q3[4:1],3,,,,1-6[4:1],8-3[4:1]
,,,,,27,3>6[1:1]/6,45,,,,,,,,,,,,,2b/7b
,,,,,,3,,,,,,5,,,,,,4,,,,,,6,,,,,,2,,,,,,7
,,,,,,1-5[8:1]/8-4[8:1],,,,2b/7b
,,1-4[8:1],,1-6[8:1],,1,,8-5[8:1],,8-3[8:1],,8,,
1^4[8:1],,1^6[8:1],,1-5[8:1],,1,,,,7,6,
5h[4:1],,7h[4:1],,1h[4:1],,4h[4:1],,2h[4:1],,8h[4:1],,4
,15,6/2-6[8:1],,8,,16,48,3/7-3[8:1],,1
,,48,15,26,37,48,,15,48,37,26,15,,78,78,56,56,34,34,12,12,
34,34,56,56,{16}4,3,2,1,8,7,6,5,4,3,2,1,8b,,
{8},,,1-5[8:1]/8-4[8:1],,,,,26,37,,8-4[8:1]/5-1[8:1]
,,,,2,3,4h[4:1],,7,36,25,1-5[8:1]/4-8[8:1]
,,,,,7,8,1h[2:1],,,,2-6[4:1],,1-5[4:1],,8-4[4:1],,7-3[4:1],,4h[2:1]
,,,,8,,5b/6,,1b/8b,,3/4b,,1h[8:3]/5h[8:3],,,,8v6[8:1]/4v2[8:1]
,,,,,,7-3[4:1],,8-4[4:1],,1-5[4:1],,2-6[4:1],,3-7[4:1],,1b
,,2,3,4h[8:3],,,8,15,,37,,1v3[8:1]/5v7[8:1],,,,
78,78,12,12,37,37,56,56,34,34,26,26,
{16}1,8,1,8,1,8,1,8,1,8,1,8,1,8,1,8,
{8}2b/7b,3b/6b,4>5[4:5]/5<4[4:5],,,,,,
{1},
{128},,,,,,,,,,,,,,,,,,,,,,,,,,,,,,,,,,,,,,,,,,,,,,,,,,,,,,,,,,,,,,,,,2q5[2:5],,,,,,,,,,,,,,,,,,,,,,,,,,,,,,,,,,,,,,,,,,,,,,,,,,,,,,,,,,,,,,,
{1},,
{128},,,,,,,,,,,,,,,,,,,,,,,,,,,,,,,,,,,,,,,,,,,,,,,,,,,,,,,,,,,,,,,,,,,,,,,,,,,,,,,,,,,,,,,,,,,,,,,,,,,,,,,8,,,,,,,,,,,,,,,,,,,,,,,,7,
{128},,,,,,,,,,,,,,,,,,,,,,,,,3,,,,,,,,,,,,4,,,,,,,,,5,,,,,6,,,,,,,,,,,,,,,,,,,,,,,,,,,,,,,,,,,,,,,,,,,,,,,,,,,,,,,,,,,,,,,,,,,,,,,,,,,,,
E

MASTER

(190){8}5,,
{24}3,4,3,{8},,2,3,,{24}6,5,6,{8}5,,,3,4,
5,,,{24}6,5,6,{8},,3,,,,2,3,
4h[4:3],,,,3,,3,,,6,7,,
{24}6,5,6,{8},,,,45,45,,45,,4,,
{24}6,5,6,{8},,7,6,,{24}3,4,3,{8}4,,,6,5,
4,,,{24}3,4,3,{8},,6,,,,48,48,
37,37,26,26,15,15,48,48,15,15,26,26,
{16}4,5,4,5,3,6,3,6,1,8,1,8,
{4}2-6[8:1]/7,2/7-3[8:1],7,
2-5[8:1],2/8-4[8:1],8/1-5[8:1],1/7p4[8:3],47,,
7-4[8:1],7/1-5[8:1],1/8-4[8:1],8/2q5[8:3],52,,
{8}2-5[8:1],2,2/8-4[8:1],8,8/1-5[8:1],,1/7p4[8:3],,47,,,,
7-4[8:1],7,7/1-5[8:1],1,1/8-4[8:1],,8/2q5[8:3],,52,,,,
2-5[8:1],2,2/8-4[8:1],8,8/1-5[8:1],,1/7-4[8:1],,7/3-1[8:1],,3/8-4[8:1],,
8/1-5[8:1],,1/6-8[8:1],,6/2-4[8:1],,2/6p4[8:3],,46,,,,
7-4[8:1],7,7/1-5[8:1],1,1/8-4[8:1],,8/2-5[8:1],,2/6-8[8:1],,6/1-5[8:1],,
1/8-4[8:1],,8/3-1[8:1],,37,,{16}1,8,2,7,3,6,4,5,27,,,,
{4}2q5[1:1],,,8,,,7p4[1:1],,,1,,,2q5[1:1],,,8,,,7p4[1:1],,,1,,,
3h[4:5],,,4,,4h[4:1],{8}5,6h[8:5],{4},,5h[4:3],,,
4h[4:3],,,5h[2:1],,7h[4:1],{8}6,5,{8}4q5[2:1],,,,,,,,1^3[8:1],,
1-4[8:1]/7,,1-5[8:1]/7,,1^3[8:1]/7,,
1-4[8:1]/6,,1-5[8:1]/6,,1^3[8:1]/7,7,
1-4[8:1]/8-6[8:1],,1-5[8:1]/8,,1^3[8:1]/8,,
1-4[8:1]/7h[4:1],,1-5[8:1],8,1^3[8:1]/7,6,
1-4[8:1]/6-8[8:1],,1-5[8:1]/6,,1^3[8:1]/8,,
1-4[8:1]/8,,1-5[8:1]/7,,1^3[8:1]/6,,
1-4[8:1]/6,,1-5[8:1]/8,8,1^3[8:1]/7,,
1-4[8:1]/8,,{16}1-5[8:1]/8,7,6,,{8}1/8^6[8:1],,
8-5[8:1]/2,,8-4[8:1]/2,,8^6[8:1]/2,,
8-5[8:1]/3,,8-4[8:1]/3,,8^6[8:1]/2,2,
8-5[8:1]/1-3[8:1],,8-4[8:1]/1,,8^6[8:1]/1,,
8-5[8:1]/2h[4:1],,8-4[8:1],1,8^6[8:1]/2,3,
8-5[8:1]/3-1[8:1],,8-4[8:1]/3,,8^6[8:1]/1,,
8-5[8:1]/1,,{16}8-4[8:1]/1,,1,2,{8}8^6[8:1]/3,3,
8-5[8:1]/1,2,8-4[8:1]/3,,8^6[8:1]/3,,
8-5[8:1]/3,,81,,27,,
2^5[8:1],5-2[8:1],2-7[8:1],7^2[8:1],6-2[8:1],6,
6<5[4:1],,,,,,
7^4[8:1],4-7[8:1],7-2[8:1],2^7[8:1],3-7[8:1],3,
3>4[4:1],,,,,,
{16}1,2,3,4,8,7,6,5,2,3,4,5,7,6,5,4,8,1,2,3,1,8,7,6,
2,3,4,5,7,6,5,4,1,2,3,4,8,7,6,5,1,2,3,4,51,,,,
{8}
3^6[8:1],6-3[8:1],3-8[8:1],8^3[8:1],7-4[8:1],7,
7q1[8:3],,,,,,
6^3[8:1],3-6[8:1],6-1[8:1],1^6[8:1],2-5[8:1],2,
2p8[8:3],,,,,,
2^5[8:1]/5,,2,1,8,,7^4[8:1]/4,,7,8,1,,
2,2,8,8,1,1,
{16}7,2,8,1,6,3,5,4,1,,,,
{8}
1-5[8:1],8,7,6-2[8:1],7,8,1<5[4:1],,5>1[4:1],,,,
8-4[8:1],1,2,3-7[8:1],2,1,8>4[4:1],,,,1^6[32:5],7^4[32:5],
5^2[32:5],,2^7[4:1],,7^4[4:1],,4,,,2,2^5[4:1],,
5^8[4:1],,8-4[4:1],,4^1[4:1],,1s5[8:3],,,,,,
8-4[8:1],1,2,3-7[8:1],2,1,8>4[4:1],,4<8[4:1],,,,
1-5[8:1],8,7,6-2[8:1],7,8,1<5[4:1],,,,8^3[32:5],2^5[32:5],
4^7[32:5],,,1,1^6[32:5],7^4[32:5],5^2[32:5],,,8^3[32:5],2^5[32:5],4^7[32:5],
6^1[32:5],,,,45,,{16}1,8,1,8,3,6,3,6,2,7,1,8,
{4}2q5[1:1]/7,,,,,,7p4[1:1],,,,,{8}3,3,
34,,,6,5,,56,,,3,4,,{4}34,56,36,45,18,27,
2^5[8:1]/6^1[8:1],6-2[8:1],,8-4[8:1],8/5-1[8:1],58,
7^4[8:1]/3^8[8:1],3-7[8:1],,1-5[8:1],1/4-8[8:1],{8}41,1,
{4}48,24,46,15,57,35,
4/8-4[8:1],8/2-5[8:1],2/7-4[8:1],7/1-5[8:1],1/7-4[8:1],7/2-5[8:1],
{8}
2/8-4[8:1],8,2-5[8:1],2,7-4[8:1],7,1-5[8:1],1,7-4[8:1],7,2-5[8:1],2,
8-4[8:1],8,8/2-5[8:1],2,2/7-4[8:1],7,7/1-5[8:1],1,1/7-4[8:1],7,72,2,
{32}8,7,6,5,4,3,2,1,8,7,6,5,4,3,2,1,8,7,6,5,4,3,2,1,{4}4b/8b,,27,
{8}
1<5[8:1]/5,,12,3,24,,8>4[8:1]/4,,78,6,57,6,
1<5[8:1]/5,,12,{16}2,3,{8}4,4,4/8>4[8:1],,78,6,57,,
4<8[8:1]/8,,24,3,13,,1/5>1[8:1],,57,6,68,,
4<8[8:1]/8,,24,3,13,,45,,18,,27,,
2^5[8:1]/6^1[8:1],26,2/6q4[8:1],,,,
3^8[8:1]/7^4[8:1],37,3/7p1[8:1],,,,
{16}8,7,6,,{8}15,,8^3[8:1]/4^7[8:1],,8v2[8:1]/4v6[8:1],,,,26,37,
4<8[8:1]/8,,24,3,15,,5>1[8:1]/1,,75,6,84,,
1-5[8:1],1,2-6[8:1],2,3-7[8:1],3,8-4[8:1],8,7-3[8:1],7,6,6,
{16}2,4,3,7,5,6,1,3,2,8,6,7,4,5,3,6,2,7,1,8,
{8}1>4[8:1]/8<5[8:1],27,1b/8b,,,,,,
{1},
{128},,,,,,,,,,,,,,,,,,,,,,,,,,,,,,,,,1,,,,,,,,,,,,,,,,8,,,,,,,,,,,,,,,,7p4[128:319],,,,,,,,,,,,,,,,,,,,,,,,,,,,,,,,,,,,,,,,,,,,,,,,,,,,,,,,,,,,,,,
{1},,
{128},,,,,,,,,,,,,,,,,,,,,,,,,,,,,,,,,,,,,,,,,,,,,,,,,,,,,,,,,,,,,,,,,,,,,,,,,,,,,,,,,,,,,,,,,,,,,,,,,,,,,,,1,,,,,,,,,,,,,,,,,,,,,,,,2,
{128},,,,,,,,,,,,,,,,,,,,,,,,,6,,,,,,,,,,,,5,,,,,,,,,4,,,,,3,,,,,,,,,,,,,,,,,,,,,,,,,,,,,,,,,,,,,,,,,,,,,,,,,,,,,,,,,,,,,,,,,,,,,,,,,,,,,
E

Re:MASTER


  • サテライト地帯と最後を修正しました。最後はまだ違ってるかもです。 -- 名無しさん (2015-03-06 00:58:16)
  • 最後を修正しました。違ったらごめんなさい… -- 名無しさん (2015-03-06 02:57:21)
  • 最後のスライドの速さの修正とラスト4ノーツ(のうち1つ目と2つ目)の間に休符を挿入しました。 -- 名無しさん (2015-03-08 17:39:15)
  • 21行目の4q5[8:3]なんですけど、4q5[8:4]の方が合ってる気がします。違ったらごめんなさい。 -- 名無しさん (2015-05-03 02:19:51)
  • ↑動画見直した感じそっちの方があってそうだったので直しました。 -- 名無しさん (2015-05-09 17:18:42)
  • MASTER譜面のSLIDEの速度、ラストのBPMの修正を行いました。 -- けもがみ (2026-03-21 09:18:04)
名前:
コメント:

タグ:

+ タグ編集
  • タグ:
最終更新:2026年10月04日 21:07