| アーティスト |
DJ YOSHITAKA「jubeat」より |
EASY
BASIC
(173.0){2}1,2,
{1}3h[2:1],
{2}5,6,
{1}7b/8b,
{1}8,
{1}8,
{1}6,
{2}6,5,
{1}4,
{1}4,
{1}2,
{2}2,1,
{4}8,8,,8,
{4},8,,8,
{4},1,,1,
{4},1,,1,
{4},7,,7,
{4},7,,7,
{4},2,,2,
{1}2h[2:1],
{4}5,5,,6,
{4},7,,8,
{4},1,,2,
{4},3,,4,
{4},5,,4,
{4},3,,2,
{4},1,,8,
{1}8h[2:1],
{2}1,2,
{2}8,7,
{2}1,1/2,
{2}8,7/8,
{2}1/2,1/8,
{2}7/8,1/8,
{4}1,8,1,8,
{1}2h[4:3]/7h[4:3],
{4}1,1,1,,
{4}7,7,7,,
{2}5/6,3/4,
{4}1,8,2/7,,
{4}8,8,8,,
{4}2,2,2,,
{2}3/4,5/6,
{4}8,1,2/7,,
{4}1,2,3,,
{4}5,6,7,,
{2}7/8,1/2,
{4}4,5,3/6,,
{4}8,7,6,,
{4}4,3,2,,
{2}1/2,7/8,
{4}5,4,3/6,,
{1}1h[4:3],
{2}8,7,
{1}1h[4:3],
{2}8,7,
{1}1h[4:3],
{2}8,5/6,
{1}1h[4:3],
{2}8,5/6,
{1}1^4[2:3]/8^5[2:3],,,,,,
{1}4,
{1}4,
{2}4,4,
{1}7h[2:1],
{4}1,2,3/4,,
{4}8,7,5/6,,
{2}3/5,4/6,
{4}4/5,3/6,2/7,,
{4}4,3,1/2,,
{4}5,6,7/8,,
{2}2/8,1/7,
{4}1/8,2/7,3/6,,
{1}5h[4:3]/6h[4:3],
{4}4,4,5,5,
{1}3h[4:3]/4h[4:3],
{4}5,5,6,6,
{1}7h[4:3]/8h[4:3],
{4}1,1,8,8,
{1}1h[4:3]/2h[4:3],
{4}3,4,5,6,
E
ADVANCED
(173.0){4}1,2/7,8,2/7,
{4}3/6,1-4[16:3]/8-5[16:3],,,
{4}2,1,8,7,
{4}1^4[4:1]/8^5[4:1],,,1b,
{1}8h[2:3],,
{1}4h[2:3],,
{1}7>6[4:5],,
{4}7h[2:1],,,7,
{4}8,1,2,3,
{1}3h[2:5],,
{4},,,4,
{4}5,3,6,2^7[4:5],{1},,
{2}4h[2:1],5h[2:1],
{2}1,8,
{4}1,,,3h[2:3],
{4},4,,4,
{4},4,,4,
{4}4,5,6,7h[1:3],
{4},6,,6,
{4},6,,6,
{4},6,,6,
{1}6-2[4:1],
{4}3,3,4,4,
{4}5,5,6,6,
{4}5,3,4,6,
{4}4,6,5,3,
{4}4/5,5/6,4/5,3/4,
{4}4/5,2/4,4/5,5/7,
{4}4/5,3/6,2/7,1b/8b,
{2}2-6[8:1],8-4[8:1],
{4}1,5,3,7,
{4}2,6,4,8,
{4}2,5,4,7,
{8}3,,6,,4,5,4,,
{4}5,8,1,2,
{4}4,1,8,7,
{4}3,4,5,6,
{8}1,,8,,1,8,1,,
{4}2/7,3,4,5,
{4}7,6,5,4,
{4}1/8,3,5,7,
{8}3,,6,,5,4,5,,
{4}1/8,6,4,2,
{4}1,8,7,6,
{4}3/4,3,5/6,6,
{8}4/5,,4/5,,4,5,4b,,
{4}1h[8:3]/2h[8:3],,,1/2,
{4}2,1^7[4:1],,,
{4}7h[8:3]/8h[8:3],,,7/8,
{4}7,8^2[4:1],,,
{4}3h[8:3]/5h[8:3],,,3/5,
{4}3,5v7[4:1],,,
{4}4h[8:3]/6h[8:3],,,4/6,
{4}6,4v2[4:1],,,
{1}1>8[4:7],,,,,,
{1}1/5,
{1}2/6,
{2}3/7,4/8,
{4}4/8,3/7,2/6,1b/5b,
{4}3,4,3,3/4,
{4}6,5,6,5/6,
{4}2,1,2,1/2,
{4}7,8,7,7/8,
{4}3,5,3,2/4,
{4}6,4,6,5/7,
{2}1/2,7/8,
{4}1/2,7/8,5/6,3/4,
{4}3h[8:3]/4h[8:3],,,3/4,
{4}2,3-6[4:1],,,
{4}5h[8:3]/6h[8:3],,,5/6,
{4}7,6-3[4:1],,,
{4}5h[8:3]/6h[8:3],,,5/6,
{4}3,4-1[4:1],,,
{4}3h[8:3]/4h[8:3],,,3/4,
{4}6,5,4,2b/7b,
E
EXPERT
(173.0){8}5/6,,1,,3,4,8,,
{8}2,7,4,5,3/4,5/6,,,
{16}2/7,,,,6,,5,,4,,3,,2,,1,8,
{4}1-5[2:1],,,1b,
{8}8,7,6,5,,1,2,3,
{8},7,6,5,,2,3,4,
{8},6,5,4,,3,4,5,
{8}6,3,7,2,,8,7,6,
{8}1,2,3,4,,7,6,5,
{8},2,3,4,,6,5,4,
{8}3,6,2,7,,1,8,2h[4:1],
{8},4h[4:1],,6h[4:1],,8h[4:1],,4h[8:21],
{16}6,,6,,,3,,,2,,,1,,,8,,
{16}6,,6,,,3,,,2,,,1,,,8,,
{16}6,,6,,,3,,,8,,,,1,,7h[4:1],,
{8},5h[4:1],,3h[4:1],,1h[4:1],,5h[8:25],
{16}3,,3,,,6,,,7,,,8,,,1,,
{16}3,,3,,,6,,,7,,,8,,,1,,
{16}3,,3,,,6,,,7,,,8,,,1,,
{2}2h[4:3],7h[4:1],
{8}3h[4:1]/8h[4:1],,,1h[4:1]/6h[4:1],,,{4}4>5[2:3]/5<4[2:3],{1},
{8},,,,,,4,5h[4:1],
{8},7h[4:1],,1h[4:1],,3h[4:1],,5h[8:25],
{8}4,4,,6,6,,1,,
{8}3,3,,7,7,,1,,
{8}2,2,,8,8,,1,,
{8}1h[1:1],,,,5,6,7,8,
{8}7,3,,5,3,4,3,4,
{8}2,6,,4,6,5,6,5,
{8}7,3,,1,2,4,2,4,
{8}2,6,,8,7,5,7,5,
{8}3,4,,8,6,5,,1,
{8}2,4,,8,7,5,,1,
{8}4,4,7,5,5,2,1b/8b,,
{16}3h[16:3],,,8,,,6h[16:3],,,1,,,2,,7,,
{8}1,2/8,,5/6,4,7,4,8,
{8}3,2/4,,7/8,6,1,6,2,
{8}5,4/6,,1/8,7,4,5,2,
{8}6,7-4[8:1],,,3,2-5[8:1],,,
{8}8,1/7,,3/4,5,2,5,1,
{8}6,5/7,,1/2,3,8,3,7,
{8}4,3/5,,1/8,2,5,4,7,
{8}2,1-6[8:1],,,7,8-3[8:1],,,
{8}2,3/4,,7/8,6,1,6,2,
{8}7,5/6,,1/2,3,8,3,7,
{8}2,1/8,,2/7,3,4,5,6,
{8}7,8-4[8:1],,,2,1-5[8:1],,,
{8}7,5/6,,1/2,3,8,3,7,
{8}2,3/4,,7/8,6,1,6,2,
{8}7,1/8,,2/7,6,7,8,1,
{8}2,3-8[8:1],,,7,6-1[8:1],,,
{16}3,,,2/4,,,6,,,5/7,,,1/8,,1/8,,
{8}2,8,4,6,1h[4:1],,8,,
{16}7,,,6/8,,,2,,,1/3,,,4/5,,4/5,,
{16}6,,5,,4,,3,,2/6,,,3/8,,,1/7,,
{16}6,,,5/7,,,3,,,2/4,,,1/8,,1/8,,
{8}7,1,5,3,8h[4:1],,1,,
{16}2,,,1/3,,,7,,,6/8,,,4/5,,4/5,,
{16}3,,4,,5,,6,,3/7,,,1/6,,,2/8,,
{1}5h[1:2]/1>8[2:3],,
{1}1b,,,,
{1}2v5[2:1]/8v5[2:1],
{1}1s5[2:1],
{2}1-5[8:1]/8-2[8:1],1v4[8:1]/8-5[8:1],
{16}3h[16:3],,,8,,,6h[16:3],,,1,,,3,,7,,
{16}1,,3,4,,4,3,,5,,3,,7,,1,,
{16}8,,6,5,,5,6,,4,,6,,2,,8,,
{16}1,,7,8,,2,1,,3,,6,,4,,5,,
{16}3h[16:3],,,4,,,2/5,,6h[16:3],,,5,,,4/7,,
{16}8,,6,5,,5,7,,4,,6,,2,,8,,
{16}1,,3,4,,4,2,,5,,3,,7,,1,,
{16}8,,2,1,,7,8,,2,,5,,4,,7,,
{16}2h[16:3],,,1,,,3/8,,7h[16:3],,,8,,,1/6,,
{16}3,,,2/4,,,6,,,5/7,,,1/8,,1/8,,
{8}2,6,4^1[8:1],,8^3[8:1],,,,
{16}7,,,6/8,,,2,,,1/3,,,4/5,,4/5,,
{16}6,,3,,7,,2,,8h[16:3],,,1,,,2/7,,
{16}6,,,5/7,,,3,,,2/4,,,1/8,,1/8,,
{8}7,3,5^8[8:1],,1^6[8:1],,,,
{16}2,,,1/3,,,7,,,6/8,,,2/7,,2/7,,
{16}3,,5,,1,,,,7,8,,2,1,,3b/8b,
E
MASTER
(173){8}2h[4:3],,1,,7,8,1,,2h[8:1],3h[4:1],,4,{16}5,4,5,4,{8},,
6^8[8:1],,2^4[8:1],,1,8,7,{16}3,4,{4}3>6[4:1],,,1b/8b,
{8}
6h[8:1],5h[8:1],4h[8:1],3h[4:1],,4h[8:1],5h[8:1],6h[4:1],
,7h[8:1],8h[8:1],1h[4:1],,2h[8:1],3h[8:1],4h[4:1],
,7h[8:1],4h[8:1],2h[4:1],,1,8,7h[2:1],
8,1,2,3h[2:1],,8,7,6,
2^5[4:1],1,8,7^4[4:1],,8,1,2^7[4:1],
,3,4,5^8[4:1],,1,2,3,
,8,7,6,,3,4,5p8[4:1],,8p3[4:1],,3p7[4:1],,7-5[8:1],,,
{4}
2^7[16:1],6q3[16:1],7^2[16:1],,6^3[16:1],2q7[16:1],3^6[16:1],,
2^5[16:1]/6^1[16:1],26,5p8[16:1]/1p4[16:1],51,
{8},1p3[4:1],,3p5[4:1],,5p7[4:1],,7>6[8:5],{2},,
1q5[16:1]/5q1[16:1],5^2[16:1]/1^6[16:1],4p8[16:1]/8p4[16:1],8^3[16:1]/4^7[16:1],
{4}8h[4:3]/2-6[16:1],2,7-3[16:1],7,
{8}8h[8:3],,,6h[8:3],,,4h[1:2],,
{4}7,7^2[16:1],,2p5[16:1],,5q3[16:1],,
{8}3,3h[4:1],,7h[4:1],,6h[4:1],,3h[4:1],,2h[8:21],
{4},6^3[16:1],,3q1[16:1],,1q6[16:1],,6q3[16:1],,3q6[2:1],,1q4[4:3],1,,,,
{16}
18,,7,5,,6,4,,5,3,,4,2,,7,,
18,,2,4,,3,5,,4,6,,5,7,,2,,
18,,7,6,,6,5,,5,4,,4,3,,7,,
18,,2,3,,3,4,,4,5,,5,6,,2,,
1b/8b,,3,4,,6,5,,1b/8b,,2,5,,7,4,,4b/5b,,2,1,,7,8,,4b/5b,,3,5,,4,6,,
1,8,2,7,3,6,4,5,3,6,2,7,1b/8b,,,,
4-1[16:1],,,5-7[16:1],,,4-2[16:1],,,5-8[16:1],,,1b,,1b,,
7,,3,4,,2,1,,5,6,,8,7,,27,,1,,6,5,,7,8,,4,3,,1,2,,27,,
8,,1,5,,3,7,,2,6,,4,8,,1,,23,,,67,,,18,,5,5,4,6,,1,8,,
25,,3,4,,6,5,,3,6,,4,5,,18,,47,,6,5,,3,4,,2,7,,8,1,,45,,
27,,1,5,,2,6,,8,4,,7,3,,45,,67,,,23,,,18,,4,4,5,3,,7,2b,,
18,,3,1,,5,7,,2,4,,8,6,,4,,27,,8,2,,6,4,,7,1,,5,3,,6,,
18,,3,8,,5,6,,4,7,,2,1,,56,,34,,,21,,,78,,78,16,25,34,,7,1,,
34,,6,5,,2,1,,7,8,,3,4,,18,,56,,3,4,,7,8,,2,1,,6,5,,18,,
36,,4,5,,7,2,,3,6,,8,1,,36,,48,,,37,,,26,,15,26,37,48,,1,8,,
7b/1h[16:3],,,3h[16:3],,,5h[16:3],,,7-3[8:1],,,5,,5,,
8v6[16:1],,1v3[16:1],,,,,,5,4,5,4,,8,1,,
2b/8h[16:3],,,6h[16:3],,,4h[16:3],,,2-6[8:1],,,4,,4,,
1,,8,,3,4,3,,6,5,,36,,8,4,,
6b/2h[16:3],,,1h[16:3],,,8h[16:3],,,7q5[8:1],,,2,,2,,
6v8[16:1],,3v1[16:1],,,,,,5,4,7,2,,8,1,,
2b/6h[16:3],,,5h[16:3],,,4h[16:3],,,3q1[8:1],,,6,,6,,
2,,7,,2,1,2,,7,8,,27,,1,8,,
{24}1,2,3,4,5,6,7,8,1,2,3,4,5,6,7,8,1,2,3,4,5,6,7,8,
1,2,3,4,5,6,7,8,1,2,3,4,5,6,7,8,1,2,3,4,5,6,7,8b,{1},,,,
{4}
2q6[16:1]/6q2[16:1],6^3[16:1]/2^7[16:1],26,,
3p7[16:1]/7p3[16:1],7^2[16:1]/3^6[16:1],37,,
1q5[16:1]/5q1[16:1],,4p8[16:1]/8p4[16:1],,
{16}23,,,67,,,15,,,48,,,2b/7b,,4b/5b,,
36,,1,5,,3,7,,15,26,37,48,7,6,5,,6,,2,7,,8-4[16:1],,1-5[16:1],,8,,1,,,7,2,
6,,4,8,,2,6,,48,37,26,15,2,3,4,,37,,,26,,,15,,84,15,26,37,,4,5,,
36,,1,5,,7,3,,6,7,8,1,48,37,26,,4,,6,3,,1v4[16:1],,8v5[16:1],,1,,8,,,4,5,
3,,7,3,,1,5,,37,26,15,84,15,26,37,,26,,,37,,,48,,51,48,37,26,,5,1,,
4b/2h[16:3],,,8h[16:3],,,4h[16:3],,,6^1[8:1],,,2,,2,,
2^5[16:1],,1^6[16:1],,,,,,4,6,2,8,,1,8,,
5b/7h[16:3],,,1h[16:3],,,5h[16:3],,,3^6[8:1],,,8,,8,,
7,,8,,3,5,1,,7,5,,27,,8,1,,
4b/8h[16:3],,,6h[16:3],,,2h[16:3],,,1h[16:3],,,8,,1,,
5,,3,,7,,1,,8,4,6,2,,6,3,,
5b/1h[16:3],,,3h[16:3],,,7h[16:3],,,8h[16:3],,,1,,8,,
7,,6,,15,26,37,,1,5,,3v1[16:1]/7v5[16:1],,,3b/7b,,
Re:MASTER
(173){8}45,,18,,4,5,36,,17,7,4,4,{16}6,5,4,3,{8},,18,,27,27,36,36,4>4[2:1]*<4[2:1]/5,{24}6,5,3,{4}4,,,2b/6b,{8}7,8,1,2,,8,1,2,,7,8,1,,8,1,2,,7,8,1,,8,1,2,6,5,4,3,,6,5,4,7h[8:11],8,1,2,,8,1,2,,8,1,2,,6,5,4,3b,,,,,2h[8:1],3h[8:1],4-8[8:1],,7,,6h[8:1],{32}8,1,2,3,4,5,6,7,8,1,2,3,{16}4b/5b,,36,,7,,7,5,6,,4,5,,3h[16:3],,,4,,3,,2,,2,4,3,,5,4,,6h[16:3],,,5,,6,,7,,7,5,6,,4,5,,5,4,,{4}3h[4:1],1h[4:1],8h[4:1],6h[4:1],{16}3,,3,,2,,2,4,3,,5,4,,6h[16:3],,,5,,6,,7,,7,5,6,,4,5,,3h[16:3],,,4,,3,,2,,2,4,3,,5,4,,6h[16:3],,,5,,{2}4/8<3[4:1],1>6[4:1],{8}7-4[8:1],,,2-5[8:1],,,8b,,47,{16}6,5,,4,5,,7,5,,3,5,,2,,25,,3,4,,5,4,,2,4,,6,4,,{4}4/6h[4:1],8h[4:1],1h[4:1],3h[4:1],{16}6,,47,,6,5,,4,5,,7,5,,3,5,,2,,25,,3,4,,5,4,,2,4,,6,4,,7,,47,,6,5,,4,5,,7,5,,3,5>6[2:1],,5,,{4}2h[2:1],,,3b/6b,{16}28,,6,4,6,4,5,,3,4,,6,5,,8,,17,,3,5,3,5,4,,6,5,,3,4,,1,,28,,6,4,6,4,5,,3,4,,6,5,,8,,17,,3,5,3,5,4,,6,5,,3,4,,1,,28,,7,5,7,5,6,,17,,2,4,2,4,3,,47,,8,5,8,5,7,,25,,1,4,1,4,2,,8,4,7,5,6,5,7,7,3,4,2,5,1b/6b-8[16:1],,,,3b-1[16:1],,,5b-7[16:1],,,4b-2[16:1],,,5b,,,8b,,1b,,35,,7-4[8:1],8,6,8,7,,2,2,,8,1,,7,5,6,,3-8[8:1],4,2,4,3,,7,7h[8:1],,5,5,,47,,36,,2,1,3,1,2,,7,5,6,5,8<5[8:1],,1,,8>3[8:1],,,8-4[8:1],,,8,,1,1,,25,,6,5,,3b/7b,,2-5[8:1],1,3,1,2,,7,7,,1,8,,2,4,3,,6-1[8:1],5,7,5,6,,2,2h[8:1],,4,4,,25,,36,,7,8,6,8,7,,2,4,3,4,1>4[8:1],,8,,1<6[8:1],,,1-5[8:1],,,1,,8,8,,47,,3,4,,2b/6b,,7<4[8:1],8,6,8,7,,2,2,,8,1,,7,5,6,,3>8[8:1],4,2,4,3,,7,7h[8:1],,5,5,,47,,36,,2,1,3,1,2,,7,5,6,5,8<5[8:1],,1,,8>3[8:1],,,8-4[8:1],,,8,,1,1,,25,,6,5,,3b/7b,,2,1,3<6[8:1],1,2,,7,7,,1,8,,2,4,3b,,7,8,6>3[8:1],8,7,,2,2,,8,1,,7,5,6b,,2-4[16:1],1,2,1,2,,6-8[16:1],5,6,5,6,,1,,{2}3b/7b,{8}35,46,52,47,{16}1h[8:1]/5h[8:1],,,4h[8:1]/6h[8:1],,,2h[8:1]/4h[8:1],,,5h[8:1]/7h[8:1],,,17,,28,,3,,4,,6,5,6,,{24}8<5[8:1],1,2,3,4,5,{16}8,,,,2h[8:1]/4h[8:1],,,8h[8:1]/3h[8:1],,,1h[8:1]/6h[8:1],,,2h[8:1]/4h[8:1],,,35,,46,,7,,8,,2,1,2,,5,4h[8:1],,6,,,57,,4h[8:1]/8h[8:1],,,5h[8:1]/3h[8:1],,,5h[8:1]/7h[8:1],,,2h[8:1]/4h[8:1],,,28,,17,,6,,5,,3,4,3,,{24}1>4[8:1],8,7,6,5,4,{16}1,,,,5h[8:1]/7h[8:1],,,6h[8:1]/1h[8:1],,,8h[8:1]/3h[8:1],,,6h[8:1]/7h[8:1],,,4pp7[2:1]*qq1[2:1]/6,,35,,{4}4,,,3b/5b,{32}72,3,4,5,6,7,8,1,2,3,4,5,6,7,8,1,2,3,4,5,6,7,8,1,2,3,4,5,6,7,8,1,2,3,4,5,6,7,8,1,2,3,4,5,6,7,8,1,2,3,4,5,6,7,8,1,2,3,4,5,6,7,8,1,{1}2b/6b,,,,{4}7b-2[8:1]/3b-6[8:1],3V16[4:1]/7V52[4:1],,,2b-7[8:1]/6b-3[8:1],6V83[4:1]/2V47[4:1],,,5b-1[8:1]/6,58,3/4b-8[8:1],14,{16}46,,,25,,,18,,{32}7,6,5,4,3,2,1,8,{16}7b/3b,,,,18,,2-6[8:1],4,1,5,2,,8,8,5,7,4,6,3,5,26,,1,8h[8:1],,5,5h[8:1],,3,4,1,2,7,8,6,5,7,,3-1[16:1],4,2,4,3,,7-5[16:1],8,6,8,7,,4,,35,,6,57,,3,24,,18,27,36,45,,36,36,,1b/8b,,7-3[8:1],5,8,4,7,,1,1,4,2,5,3,6,4,37,,8,1h[8:1],,4,4h[8:1],,6,5,8,7,2,1,3,4,2,,6-8[16:1],5,7,5,6,,2-4[16:1],1,3,1,2,,5,,2b/7b,,3,4,,6,5,,78,6,54,3,12,8,75,,4h[8:1]/8h[8:1],,,3h[8:1]/5h[8:1],,,5h[8:1]/7h[8:1],,,2h[8:1]/4h[8:1],,,28,,17,,6,,5,,3,4,3,,{24}1>4[8:1],8,7,6,5,4,{16}1b,,,,5h[8:1]/7h[8:1],,,6h[8:1]/1h[8:1],,,8h[8:1]/3h[8:1],,,6h[8:1]/7h[8:1],,,46,,35,,2,,1,,7,8,7,,4,5h[8:1],,3,,,24,,1h[8:1]/5h[8:1],,,4h[8:1]/6h[8:1],,,2h[8:1]/4h[8:1],,,5h[8:1]/7h[8:1],,,17,,28,,3,,4,,6,5,6,,{24}8<5[8:1],1,2,3,4,5,{16}8b,,,,2h[8:1]/4h[8:1],,,3h[8:1]/8h[8:1],,,1h[8:1]/6h[8:1],,,3h[8:1]/2h[8:1],,,35,,46,,57,,8,,2,4,3,,46,46,,3-8[16:1]/7-4[16:1],,,{1}37,,E
- FLOWER ReMASTER追加 訂正箇所あればお願いします -- Ra. (2023-03-26 21:24:16)
- Re:MASTER譜面の5,4,,3h[16:3],,→4,5,,3h[16:3],,、4,5,,6h[16:3],,→5,4,,6h[16:3],,の箇所の修正、SLIDEの速度の修正を行いました。 -- けもがみ (2026-04-27 19:58:48)
最終更新:2026年10月04日 09:32