EASY
(162){1}
1,,,1,8,,,8,
1,2,3,4,5,6,7,8,
1h[1:1],,8h[1:1],,
1h[1:1],,8h[1:1],,
8,8,7,7,6,6,5,5,
4,4,3,3,2,2,1,81,
1,1,2,2,3,3,54,4b,
5,5,6,6,7,7,81,8b,
1-4[1:1],,5-8[1:1],,
7-2[1:1],,3-6[1:1],,
5,54,4,54,5,54,54,4b,
3,2,1,81,,
7,6,5,54,4-1[1:1],,8-5[1:1],,,
E
BASIC
ADVANCED
EXPERT
MASTER
(162){16}
3,,6,,4,5,4,5,2,,7,,3,6,3,6,1,,8,,2,7,2,7,1-4[16:1]/8-5[16:1],,,,1b/8b,,,,
4,,5,,3,4,3,,5,,4,,6,5,6,,4,,5,,3,4,3,,5,,4,,6,5,6,,
3,,4,,2,5,2,,6,,5,,7,4,7,,2,,7,,1,8,1,,78,,12,,18,,36,,
45,,45,,3,4,3,,45,,45,,6,5,6,,45,,34,,2,4,2,,45,,56,,7,5,7,,
45,,34,,2,3,2,,45,,56,,7,6,7,,45,,36,,2,7,2,,18,,27,,3,6,3,,
45,,3,4,,4,3h[4:1],,,,2,,1,,8,,7,,,56,,,4-8[8:1]/3,,,,1,,1,,,,
45,,6,5,,5,6h[4:1],,,,7,,8,,1,,2,,,34,,,5-1[8:1]/6,,,,8,,8,,,,
45,,3,4,,5,2h[4:1],,,,5,,6,,7,,8,,,12,,,3-7[8:1]/4,,,,1,,1,,,,
45,,6,5,,4,7h[4:1],,,,4,,3,,2,,1,,,78,,,6-2[8:1]/5,,,,7,,8,,1,,
3,,4,,2,1,2,,6,,5,,7,8,7,,3,,4,,2,1,2,,6,,5,,7,8,7,,
2,,1,,3,8,3,,7,,8,,6,1,6,,3,,6,,4,5,4,,57,,,24,,,36,,
18,,18,,2,1,2,,18,,18,,7,8,7,,18,,12,,3,1,3,,18,,78,,6,8,6,,
18,,12,,3,2,3,,18,,78,,6,7,6,,45,,36,,2,7,2,,4^7[16:1]/5^2[16:1],,18,,,,,,
18,,2,1,,1,2h[4:1],,,,3,,4,,5,,6,,,78,,,1-5[8:1]/2,,,,8,,8,,,,
18,,7,8,,8,7h[4:1],,,,6,,5,,4,,3,,,12,,,8-4[8:1]/7,,,,1,,1,,,,
18,,2,1,,8,3h[4:1],,,,2,,4,,5,,6,,,78,,,2-6[8:1]/1,,,,8,,8,,,,
18,,7,8,,1,6h[4:1],,,,7,,5,,4,,3,,,1^6[16:3]/8^3[16:3],,,45,,,,,,,,
1,2-6[16:1],
3,,,,,,8,7-3[16:1],6,,,,,,1,2-6[16:1],3,,,,,,8,7-3[16:1],6,,,,,,2,3-7[16:1],
4,,,,,,7,6-2[16:1],5,,,,,,2,3-7[16:1],4,,,,,,7,6-2[16:1],5,,,,,,1,2-6[16:1],
3,,,2,,,8,7-3[16:1],6,,,7,,,1,2-6[16:1],3,,,12,,,8,7-3[16:1],6,,,78,,,2,4,
2,,,1-5[16:1]/8-4[16:1],,,1^6[16:1]/8^3[16:1],,,,18,,,,7,5,
7,,,1^6[16:1]/8^3[16:1],,,1-5[16:1]/8-4[16:1],,,,1b/8b,,,,
3,4,
3,,2,1,,1,8h[4:1],,,,7,,16,,25,,3/4-8[16:1],,,1-5[16:1],,,1,,8,,,,45,,6,5,
6,,7,8,,8,1h[4:1],,,,2,,38,,47,,6/5-1[16:1],,,8-4[16:1],,,8,,1,,,,45,,3,4,
3,,2,1,,1,8h[4:1],,,,7,,56,,34,,1/2-6[16:1],,,7-3[16:1],,,7,,1,,,,34,,1,2-6[16:1],
3,,,2,,,7,,78,,,,56,,8,7-3[16:1],6,,,7,,,2,,12,,,,45,,6,5,
6,,7,8,,8,1h[4:1],,,,2,,38,,47,,6/5-1[16:1],,,8-4[16:1],,,8,,1,,,,45,,3,4,
3,,2,1,,1,8h[4:1],,,,7,,16,,25,,3/4-8[16:1],,,1-5[16:1],,,1,,8,,,,45,,6,5,
6,,7,8,,8,1h[4:1],,,,2,,34,,56,,8/7-3[16:1],,,2-6[16:1],,,2,,8,,,,45,,2,7-4[16:1],
2,,,7,,,3,,34,,,,56,,2,1,{4}2-5[16:1],2/6-1[16:1],6/3-8[16:1],3/1b,
{8}27,4h[2:1]/5h[2:1],,,,,36,1h[8:3]/8h[8:3],,,,{16}2,6,{8}1h[8:3],5h[4:1],,,
26,4h[2:1]/8h[2:1],,,,,37,2h[8:3]/6h[8:3],,,,{16}7,8,16,,,38,,,27,,
36,,2,4,,3,5,,4,6,,5,7,,18,,36,,7,5,,6,4,,5,3,,4,2,,18,,
27,,3,4,,6,5,,2,4,,7,5,,18,,
{8}1^3[16:1],8^6[16:1],1-5[16:1],8-4[16:1],1-3[16:1],8-6[16:1],,,
{16}
1,,3,4,,6,5,,2,4,,7,5,,18,,2-6[16:1],,,8-4[16:1],,,8,,1b,,,,2,7,2,7,
18,,3,4,,6,5,,78,,34,,12,,56,,47,,,25,,,36,,1b/8b,,,,36,,8,1,
8,,6,5,,3,4,,7,5,,2,4,,18,,7-3[16:1],,,1-5[16:1],,,1,,8b,,,,27,,1,2-6[16:1],
3,,,2,,,5,,45,,,,27,,8,7-3[16:1],6,,,7,,,4,,4-8[16:1]/5-1[16:1],,,,4b/5b,,,,
2,6,4,8h[16:3],,,3,7,1-5[16:1],5h[16:3],,,1b,,,,
46,,35,,2,4,2,,35,,46,,7,5,7,,46,,35,,2,1,2,,35,,46,,7,8,7,,
56,,34,,2,5,2,,34,,56,,7,4,7,,56,,34,,2,1,2,,3b/8b,,1b/6b,,4b/7b,,2b/5b,,
34,,25,,1,8,1,,56,,47,,8,1,8,,12,,34,,2,5,2,,78,,56,,7,4,7,,
12,,47,,6,5,6,,78,,25,,3,4,3,,45,,34,,2,1,2,,45,,56,,7,8,7,,
45,,36,,4,5,4,5,36,,27,,3,6,3,6,27,,18,,2,7,2,7,1^4[16:1]/8^5[16:1],,,,1b/8b,,,,
45,,36,,4,5,2,7,36,,27,,3,6,1,8,27,,18,,2,5,4,7,1b/8b,
Re:MASTER
(162){16}
18,,18,,2,7,2,7,45,,45,,3,6,3,6,15,,15,,7-4[8:1],8,6,1,7,,,,
{4}2-6[8:1],
6-2[8:1],2-6[8:1],6-2[8:1],2^7[8:1],7^2[8:1],2^5[8:1],5^2[8:1],2q6[8:1],
6q2[8:1],2q6[8:1],6q2[8:1],2^7[8:1],7-3[8:1],,{8}45,36,27,18,
{4}
7-3[8:1],3-7[8:1],7-3[8:1],3-7[8:1],7^2[8:1],2^7[8:1],7^4[8:1],4^7[8:1],
7p3[8:1],3p7[8:1],7p3[8:1],,{16}18,,6,5,,3,4,,5,4,6,3,7,2,8b,,
2h[8:3],,,3-7[16:1],,,3,,,,6/7h[8:3],,5,,4,,
3h[16:3],,,1h[16:3],,,7-3[8:1],,,,,,,,6,5,
6,,5,6,,6,5h[8:5],,,,2,,1,,8,,
7h[16:3],,,5h[16:3],,,3-7[8:1],,,,,,,,7,,
7h[8:3],,,6-2[16:1],,,6,,,,2h[8:3]/3,,4,,5,,
6h[16:3],,,8h[16:3],,,2-6[8:1],,,,,,,,3,,
4,,4,3,,3,4h[8:5],,,,7,,8,,1,,
2h[16:3],,,4h[16:3],,,6h[4:1],,,,8h[4:1],,1,,1,,
1^3[8:1],,1,,8,7,6,,8^6[8:1],,8,,1,2,3,,
1^4[8:1],,1,,8,7,6,,8^5[8:1],,8,,1,2,3,,
1^3[8:1],,1,,6,7,8,,8^6[8:1],,8,,3,2,1,,
1^3[8:1],,1,,5,6,7,,45,,45,,27,,,,
1^3[8:1],,1,,8,7,6,,8^6[8:1],,8,,1,2,3,,
1^4[8:1],,1,,5,6,7,,8^5[8:1],,8,,4,3,2,,
1>5[8:1],,1,,7,8,1,,8<4[8:1],,8,,2,1,8,,
15,,37,,15,26,37,,4^7[8:1]/8^3[8:1],,26,,4b/8b,,,,
1h[8:3],,,4-8[16:1],,,4,,,,8h[8:3],,7,,6,,
5h[16:3],,,3h[16:3],,,1-5[8:1],,,,,,,,6,5,
6,,5,6,,6,5h[8:5],,,,3,,2,,1,,
8h[16:3],,,6h[16:3],,,8-4[8:1],,,,,,,,8,,
8h[8:3],,,5-1[16:1],,,5,,,,1h[8:3],,2,,3,,
4h[16:3],,,6h[16:3],,,8-4[8:1],,,,,,,,7-3[8:1],,
7,,2-6[8:1],2,,8,8,,,,23,,67,,45,,
18,,,1-5[8:1]/8-4[8:1],,,27,,,,,,,,
{8}
3v5[8:1]/4v6[8:1],
34,,,5v3[8:1]/6v4[8:1],56,,,2p6[8:1]/3p6[8:1],
23,,,6q3[8:1]/7q3[8:1],67,,,4-8[8:1],
35,,,5-1[8:1],46,,,3-7[8:1],24,,,6,5-1[16:1]/7-3[16:1],,,1v6[8:1]/3v6[8:1],
13,,,6v3[8:1]/8v3[8:1],68,,,2v5[8:1]/7v4[8:1],
27,,,{16}45,,27,,1,8,,,45,,
2,,5,,4,,7,,1,8,1,,27,,,,
27,,4,5,4,5,4,5,4,5,2,7,3,6,1,8,
1b,,1,2h[16:3],,8,7h[4:1],,,,2^7[8:1],,3,,4,,
5,,6,5,,3,4,,2p5[8:1]/7^2[8:1],,,,,,,,
45,,3,4h[16:3],,6,5h[4:1],,,,7^4[8:1],,8,,1,,
2,,3,4,,6,5,,2^7[8:1]/7q4[8:1],,,,,,,,
27,,2,1h[16:3],,7,8h[4:1],,,,2-6[8:1],,1,,2,,
1,,3,4,,6,5,,18,,,,,,15,,
37,,2,8,,4,6,,3-8[8:1]/7-4[8:1],,,,37,,,,
15,,7,1,,5,3,,26,,,,4,8,2,6,
15,,2,3h[16:3],,6,7h[4:1],,,,4^7[8:1],,3,,2,,
1,,78,78,,12,12,,4/5h[4:1],,,,8,1,2,3,
48,,3,2h[16:3],,7,6h[4:1],,,,1^6[8:1],,2,,3,,
4,,56,56,,34,34,,4h[4:1]/5,,,,1,8,7,6,
15,,3,7,,1,5,,,,2-6[8:1],,48,,26,,
7,,18,27,,45,36,,18,,,,,,15,,
1q5[8:1]/5q1[8:1],,,,1^6[8:1]/5^2[8:1],,,,1b/5b,,,,,,12,,
{4}2/1-5[8:1],1/8-4[8:1],8/7-3[8:1],7/1b,
{8}
1v3[8:1]/5v7[8:1],15,,,,,4v2[8:1]/8v6[8:1],48,,,,,3-7[8:1]/5-1[8:1],35,,,
4-8[8:1]/6-2[8:1],46,,,,,1v4[8:1]/5v8[8:1],37,,,,,{16}24,,,57,,,27,,
1,,6,5,,7,8,,4,3,,1,2,,36,,8,,3,4,,2,1,,5,6,,8,7,,36,,
18,,2,3,,7,6,,45,,7,5,,1,3,,
12,,56,,12,,56,,13,,57,,18,,45,,
2b/7b,,25,3,,47,6,,2-6[16:1],2,,7-3[16:1],7,,1,,
8h[16:3],,,6h[16:3],,,4h[8:1],,2^5[8:1],,,,1,8,7,6,
5,,14,2,,58,7,,6-1[16:1],,6,,3-8[16:1],,3,,
5h[16:3],,,7h[16:3],,,1h[8:1],,3^8[8:1],,,,4,5,6,7,
8,,38,2,,16,7,,1-5[16:1],1,,8-4[16:1],8,,2,,
7h[16:3],,,8h[16:3],,,1h[8:1],,2b,,,,,,48,,
26,,7,1,,5,3,,2-5[8:1]/6-1[8:1],,,,,,,,
48,,,26,,,18,,2<6[8:1]/3p6[8:1],,,,,,,,
15,26,37,48,,,15,26,37,48,,,
{4}4p8[8:1]/8p4[8:1],
4^7[8:1]/8^3[8:1],4-1[8:1]/8-5[8:1],4-7[8:1]/8-3[8:1],4p8[8:1]/8p4[8:1],
4^7[8:1]/8^3[8:1],,{8}48,37,{4}2q6[8:1]/6q2[8:1],
2^7[8:1]/6^3[8:1],2-5[8:1]/6-1[8:1],2-7[8:1]/6-3[8:1],2q6[8:1]/6q2[8:1],
2^7[8:1]/6^3[8:1],,{8}37,37,1q5[8:1]/5q1[8:1],15,
{4}
1^6[8:1]/5^2[8:1],1-4[8:1]/5-8[8:1],1-6[8:1]/5-2[8:1],1q5[8:1]/5q1[8:1],
1^6[8:1]/5^2[8:1],,{8}15,26,{4}3p7[8:1]/7p3[8:1],
3^6[8:1]/7^2[8:1],3p7[8:1]/7p3[8:1],3^6[8:1]/7^2[8:1],,
{16}36,,2,1,,7,8,,4,5,4,5,4,5,4,,
7h[4:1]/8,,8,,8,1,2,3,4h[4:1]/8,,8,,8,7,6,5,
4,,5,,2,7,1,8,1-5[8:1],,,,8b,,,,
15,,15,,15,26,37,48,51,,51,,48,37,26,15,
84,,84,,1v3[8:1]/5v7[8:1],26,37,48,
- Re:MASTER譜面の1^4[8:1],,1,,→1^3[8:1],,1,,の箇所の修正、SLIDEの速度の修正を行いました。 -- けもがみ (2026-04-30 23:57:50)
最終更新:2026年10月03日 22:29