EASY
(160){1}
1,,2,,
3,,4,,
5,5,6,6,
7,7,8,8,
1-4[1:1],,5-8[1:1],,
1-4[1:1],,5-8[1:1],,
1,2,3,54,
5,6,7,81,
2h[1:1],,1h[1:1],,
8h[1:1],,7h[1:1],,
{2}
6,6,6,,5,,5,,
4,4,4,,3,,3b,,
2,2,2,,1,,1,,
8,8,8,,7,,7,,7b,,
{1}
8-5[1:1],,4-1[1:1],,
8-5[1:1],,4-1[1:1],,,
E
BASIC
(160){2}
1,1,2,2,
3h[2:1],,4h[2:1],,
5,5,6,6,
7h[2:1],,8h[2:1],,
1,1,2,2,8,8,7,7,
1h[2:1],,8h[2:1],,
1-4[1:1],,,,
6,6,65,65,
3,3,43,43,
{4}5,5,5,,4,4,4,5-8[1:1],
{2},,,,43,43,
{4}1,1,1b,,
{2}8h[2:1],,7h[2:1],,65,65,
{4}8,8,8b,
{2}1h[2:1],,2h[2:1],,,
{1}
3-8[1:1],,6-1[1:1],,
1-4[1:1],,8-5[1:1],
{4},,,2,2,2,,8,8,81,
{2}7,6,5,6,
{4},7,7,7,,1,1,81,
{2}2,3,4,3,
{4},2,2,2,,4,3,43,
{2}5,6,7,6,
{4},7,7,7,,5,6,65,
{2}4,3,2,3,5-8[1:1],,,,
{4}
,7,7,7,,8,8,8,,
1,1,1,,2,2,2,,
1,1,1,,8,8,8b,
,,,,
E
ADVANCED
EXPERT
MASTER
(160)
{8}4,5,36,{16}4,5,,5,{8}4,6,3,
4,3,5,{16}3,4,,4,3,,{4}5,{2}1v4[8:1]/7v4[8:1],8v5[8:1]/2v5[8:1],4>8[8:3],{8},,5,6,7,8h[4:1],,7h[4:1],,6,6,,
5,6,4,{16}6,5,,5,6,,{4}4,{2}8v5[8:1]/2v5[8:1],1v4[8:1]/7v4[8:1],5<1[8:3],{8},,4,3,2,1h[4:1],,2h[4:1],,3,4,3b,
,2,3,4h[4:1],,5h[4:1],,6,7,8,1,{4}2^7[4:1]/6q3[4:1],,,{8}7,6,5h[4:1],,4h[4:1],,3,,1-5[8:1],1,{4}7-3[8:1],8,26,
{8}5,4,6,,4,5,3,4,2,6,4,,5,6,{4}7-3[8:1],2-6[8:1],7^2[4:1],{8}5,4,{4}3>6[8:3],,,{8}8,1,2,
3^6[16:3],,,1,1,,28,,6^3[16:3],,,8,8,,71,,3>7[16:3],,,4,4,,28,,6<2[16:3],,,5,5,,71,,
2q5[8:3],,,8,,7,,68,7p4[8:3],,,1,,2,,31,2,5,4,7,3,5,2,7,1b/8b,,,2,4,6,8,1,
7-4[8:1],,7,8-3[8:1],,8,6,4h[4:1],,8,2,4,6,1b,1b,,7h[4:1],,6,2h[4:1],,3,4,5,6,7-2[8:1],,3-6[8:1],,7,7,7,
2-5[8:1],,2,1-6[8:1],,1,3,5h[4:1],,1,7,5,3,8,2,4,{4}3p5[4:1]/6<2[4:1],,,{8}48,37,2h[4:1]/6h[4:1],,,1^4[8:1]/5^8[8:1],{2},
{8}8,3,8,{16}2,1,,1,2,,{4}8,2v5[8:1]/6,1,4/8v5[8:1],1,{1}4^1[2:1]/8q5[2:1],{8}26,,37,48,,48,37,26,
1,6,1,{16}7,8,,8,7,,{4}1,7v4[8:1]/3,8,5/1v4[8:1],8,5^8[4:1]/1p4[4:1],,,{8}2-5[8:1],7-4[8:1],2,7,,1s5[4:1],,7b,7b,,
8^6[8:1],,8,2^4[8:1],,2,6,1h[4:1],,5,3,3,17,8b,8b,,2h[4:1]/4,,8,7h[4:1]/5,,1,7,3,5,5^8[8:1],,1^4[8:1],,6,7,8,
1^3[8:1],,1,7^5[8:1],,7,2,4h[4:1],,1,6,2,7,3,8,4,{4}1s5[4:1],,,{8}28,37,46,{2}5-1[8:1],{8}5,5,5,
4^1[8:1],,4,6^1[8:1],,6,4,4h[4:1],,8,15,26,37,4b/8b,4b/8b,,4h[4:1]/5,,2,5h[4:1]/4,,7,7,68,1,1p4[8:1],,5p8[8:1],,2,3,4,
5^8[8:1],,5,3^8[8:1],,3,5,5h[4:1],,1,26,37,48,47,46,45,{4}3>7[4:1]/6p4[4:1],,,{8}58,61,72,83,,4,4,7,7,5,
6,4,5,{16}3,4,,4,{8}3,6,1,{4}2v5[8:1]/7,12,3/8v5[8:1],18,2q4[8:3],,,{8}5,6,7,8h[4:1],,1h[4:1],,2,2,,
3,5,4,{16}6,5,,5,{8}6,3,8,{4}7v4[8:1]/2,87,6/1v4[8:1],81,7p5[8:3],,,{8}4,3,2,1h[4:1],,8h[4:1],,1,7,{1}8b,,,,E
Re:MASTER
- MASTER譜面を追加しました。修正等ありましたらよろしくお願いします。 -- けもがみ (2026-04-08 20:14:29)
最終更新:2026年10月03日 22:31