アットウィキロゴ

ケッペキショウ(創作譜面:わたあめ)

曲名 ケッペキショウ
制作者名 わたあめ
音源
譜面動画
制作者コメント ちょっと詰め込みすぎたかも…
BPM EASY BASIC ADVANCED EXPERT MASTER
190 - - - - 12

EASY


BASIC


ADVANCED


EXPERT


MASTER

(190)

{1}3h[1:1],4h[1:1],5h[1:1],6h[1:1],
{4}7,7,8,8,1,1,2,2,3,3,4,4,5,5,6p3[4:5],6<6[1:1],,,,,,,,18,
{16}
1-5[16:1],,5-1[16:1],4,1,,2,,8-4[16:1],,4-8[16:1],5,8,,7,,
2-6[16:1],,6-2[16:1],3,2,,5,,4-1[16:1],,4-7[16:1],,4,,4,,
8-5[16:1],,5-2[16:1],1,8,,4,,1-4[16:1],,4-7[16:1],8,1,,5,,
3-6[16:1],,1/6-3[16:1],25,34,,8,,7-4[16:1],,1-4[16:1],,7,8,1,,
4-8[16:1],,8-4[16:1],1,4,,3,,5-1[16:1],,1-5[16:1],8,5,,6,,
3-7[16:1],,7-3[16:1],2,3,,8,,1-4[16:1],,1-6[16:1],,1,,1,,
5-8[16:1],,8-3[16:1],4,5,,1,,4-1[16:1],,1-6[16:1],5,4,,8,,
5^8[16:1],,3-7[16:1]/7,46,5^2[16:1],,3,,5,,,,

{8}1,8,
7p3[8:1],7,,1,2q6[8:1],2,,8-5[16:1],
8,8-3[16:1],,8-4[16:1],,1,2,3,
4v7[8:1],4,,6,5v2[8:1],5,,1^4[16:1],
1,1^6[16:1]/5,,1/5-1[16:1],,5,,1,
2q7[8:1],3,,4,3p6[8:1],2,,8^3[16:1],
7,4^7[16:1],,8-4[16:1],,8,7,6,
7q4[8:1],8,,7,6p1[8:1],5-2[16:1],,5-8[16:1],
,1-4[16:1],,1-6[16:1],,1,5h[4:1],,

{16}
8-5[16:1],,8-3[16:1],7,8,,8,,1-4[16:1],,1-6[16:1],2,1,,1,,
5-2[16:1],,4-7[16:1],6,5,,4,,1-5[16:1],,2/8-4[16:1],,17,,8,,
5-2[16:1],,5-8[16:1],4,5,,5,,4-7[16:1],,4-1[16:1],5,4,,4,,
8-4[16:1],,2/4-8[16:1],13,2-6[16:1]/8,,2,,2,,,,,,

{8}8,
1v6[8:1],2,,1,8v3[8:1],7,,2s6[8:5],
,8-4[16:1],,8,,5,4,3,
4v1[8:1],5,,6,5v8[8:1],4,,7-3[8:5],
,1s5[8:1],,1,8,7,,4,
3p5[8:1],2,,5,6q4[8:1],7,8,1q6[8:5],
2,8h[4:1],,1,,1,8,3,
2q6[8:1],1,,6,7p3[8:1],8,,1^6[4:1],
,6^3[4:1],,3-6[16:1],,3b,,,

{12}
1p4[4:1],2,3,4q1[4:1],3,2,1q6[4:1],8,7,6p8[4:1],,7,
8q5[4:1],7,6,5,4,3,2p3[8:1],,,,,,
8q5[4:1],7,6,5p8[4:1],6,7,8p3[4:1],1,2,3q1[4:1],,2,
1p4[4:1],2,3,4,5,6,7q6[8:1],,,,,,
3v6[4:1],4,5,6-3[4:1],5,4,3q1[4:1],2,,1-4[4:1],2,3,
4q1[4:1],3,2,1-5[16:1],,1,1,,,{8}2-5[16:1]/6-1[16:1],37,
2/6-2[16:1],,,8^3[16:1],8h[8:3],,,1-5[16:1],
,1,8-4[16:1],,8b,,,,

1q5[16:1]/5q1[16:1],15,1^6[16:1]/5^2[16:1],,1-5[16:1]/5,,1,7-3[16:1],
,7^4[16:1]/3^8[16:1],,37,,48,15,26,
3-6[16:1],,3,2-7[16:1],,2,,5h[4:1],
,6,67,68,6-3[16:1]/1-4[16:1],,,,
4p8[16:1]/8p4[16:1],48,4^7[16:1]/8^3[16:1],,4/8-4[16:1],,8,2-6[16:1],
,2^5[16:1]/6^1[16:1],,26,,15,48,37,
2-5[16:1],,2,7-4[16:1],,7/1-6[16:1],,1-4[16:1]/5,
,1/8-5[16:1],8-3[16:1],8,8z4[8:1],,,,
2q6[16:1]/6q2[16:1],26,2^7[16:1]/6^3[16:1],,2-6[16:1]/6,,2,8-4[16:1],
,8/5-1[16:1],,5,,45,36,27,
1-6[16:1]/8,,1,4-7[16:1],,4/1^4[16:1],,1^6[16:1]/8h[4:1],
,1,5-1[16:1],,5h[4:1],,,,
1-5[16:1],28,1,,8-4[16:1],17,8,5-2[16:1],
,5^7[16:1]/4-7[16:1],,5-2[16:1]/4^2[16:1],,45,,1p8[8:3]/8,
2>7[4:1]/7,,,,,,4,45,
,5,45,,1^4[16:1]/8^5[16:1],,,,

{16}
1-4[16:1],,1-6[16:1],28,1,,1,,8-5[16:1],,8-3[16:1],17,8,,8,,
4-1[16:1],,4-7[16:1],35,4,,4,,8-4[16:1],,4-8[16:1],,8h[4:1],,,,
5-8[16:1],,5-2[16:1],46,5,,5,,4-1[16:1],,4-7[16:1],35,4,,4,,
8-4[16:1],,2-6[16:1]/6,37,48,,2^7[16:1],,3,,2-5[16:1],,4,3,2,,
8-5[16:1],,8-3[16:1],17,8,,8,,1-4[16:1],,1-6[16:1],28,1,,1,,
5-8[16:1],,5-2[16:1],46,5,,5,,1-5[16:1],,5-1[16:1],,1h[4:1],,,,
4-1[16:1],,4-7[16:1],35,4,,4,,5-8[16:1],,5-2[16:1],46,5,,5,,
1-5[16:1],,4-8[16:1]/7,38,1/2-6[16:1],,4,,2,,,,,,

{8}1,
2/3-7[8:1],34,,8,7/6-2[8:1],56,,1^4[16:1],
,6^1[16:1]/1,,6/3^6[16:1],,37,7,5,
6/7-3[8:1],78,,4,3/2-6[8:1],12,,8^5[16:1],
,8/3^8[16:1],,3/6^3[16:1],5,4,,2,
1/8-4[16:1],87,,{16}2,3,{8}4/5-1[8:1],56,,2^7[16:1],
3,2/5^2[16:1],,5/8^5[16:1],,18,1,2,
{16}36,36,{8},,,,,,,27,1,8,1,{16}8,1,8,,1,,8-5[16:1],1,
{8}
7,6h[4:1],,1-4[16:1],2,3h[4:1],,8v3[16:1],
8,8/7v4[16:1],,8/7q3[16:1],,8,1,2-7[16:1],
1,8h[4:1],,3-6[16:1],4,5h[4:1],,1-5[16:1],
12,18,,8-4[16:1],78,18,,5-1[16:1],
37,5/1h[4:1],,4-8[16:1],26,4/8h[4:1],,2^7[16:1],
18,2/7^2[16:1],,7/3>7[16:1],,3,4,6-2[16:1],
48,6/2h[4:1],,3-7[16:1],15,3/7h[4:1],,2-6[16:1],
,2b/7-3[16:1],,7b/2^7[16:1],2b,2b,,,

{12}
1h[6:1],2,3-8[16:1],4h[6:1],5,3-7[16:1],2h[6:1],4,3-6[16:1],8h[6:1],5,3-7[16:1],
7h[6:1],1,3-8[16:1],2h[6:1],,3v5[48:7],7v1[16:1],,,,,,
8h[6:1],7,6-1[16:1],5h[6:1],4,6-2[16:1],7h[6:1],5,6-3[16:1],1h[6:1],4,6-2[16:1],
2h[6:1],8,6-1[16:1],7h[6:1],5,6v4[48:7],2v8[16:1],,,,,,
4h[6:1],3,2-5[16:1],1h[6:1],8,2-6[16:1],3h[6:1],1,2-7[16:1],5h[6:1],8,2-6[16:1],
6h[6:1],4,2-5[16:1],3h[6:1],1,2v8[48:7],6v4[16:1],,,{8},2-6[16:1],
5/6-2[16:1],,,7-3[16:1],4/3-7[16:1],,,5-1[16:1],,5,4-8[16:1],,4b,,,,

1-3[16:1]/8-3[16:1],,1-6[16:1]/8-6[16:1],,1-5[16:1]/8-4[4:1],,1,8^3[16:1],
,8^5[16:1],,8,,1-5[16:1]/5,37,,
6-3[16:1],,6/2-7[16:1],,2/3-6[16:1],,3,8-4[16:1],
,8/1-5[16:1],1,7^2[16:1],2^5[16:1],,,,
3-6[16:1]/7-2[16:1],15,3-8[16:1]/7-4[16:1],,3-6[4:1]/7-2[16:1],,7,3-8[16:1],
,3-6[16:1],,3,,1-4[16:1]/8-5[16:1],4-1[16:1]/5-8[16:1],,
,,2-7[16:1]/3-6[16:1],6-3[16:1]/7-2[16:1],,,,18,
,4^1[16:1]/5^8[16:1],1-5[16:1]/8-4[16:1],,,,,,
1^4[16:1]/8^5[16:1],27,1-5[16:1]/8-4[16:1],,1-3[4:1]/8-6[16:1],,8,1-4[16:1],
,1-6[16:1],,1-5[16:1],,8,8,8,
2-5[16:1],,2,7-4[16:1],,7,,1-6[16:1],
,1,8-3[16:1],,8,,,,
2-6[16:1]/3-7[16:1],14,23,,6v3[16:1]/7v2[4:1],,6,7^2[16:1],
,7/4p5[8:1],,4,,18,27,3/6p3[8:3],
4/5p4[4:1],,,,,,12,18,
,78,18,,4-8[16:1]/5-1[16:1],,,,

{16}
18,,1-5[16:1],2,38,,8,,4,,4-8[16:1]/7,3,27,,7,,
1,,1-5[16:1]/6,2,36,,,,48,,4-8[16:1],3,28,,8,,
1,,1-5[16:1]/7,2,37,,7,,4,,4-8[16:1]/6,3,26,,,,
17,,1v3[16:1],2,3-8[16:1]/7,,7,,7^2[16:1],,,,2b/7b,,,,

{8}
2-7[16:1],,3,4-7[16:1],,3-7[16:1],,3,
,1-6[16:1]/7h[4:1],,1,8-5[16:1],4-1[16:1],8,4,
{12}
1-7[16:1],2,3,1/4-2[16:1],5,6,7-5[16:1]/4,8,1,2-8[16:1]/7,3,4,
5-7[16:1]/2,4,3,2-4[16:1]/5,1,8,7/2,,,{16}1/8-3[16:1],,1-6[16:1],7,
{8}8-4[16:1],1-5[16:1],8-5[16:1],1-4[16:1],8-6[16:1],1-3[16:1],8-3[16:1],1-6[16:1],
8-4[16:1],1-5[16:1],8-5[16:1],1-4[16:1],8-6[16:1],1-3[16:1],8,1,
4,4-8[16:1],48,,5-1[16:1],51,,3-8[16:1],38,,6-1[16:1],61,,7-2[16:1],72,,
{16}
1-5[16:1],,5-1[16:1],6h[16:3],1,,,,8-4[16:1],,4-8[16:1],3h[16:3],8,,,,
2-6[16:1],,6-2[16:1],7h[16:3],2-7[16:1],,,,1-4[16:1],,,,,,,,
4-8[16:1],,8-4[16:1],7h[16:3],4,,,,5-1[16:1],,1-5[16:1],2h[16:3],5,,,,
3-7[16:1],,7-3[16:1],6h[16:3],3-6[16:1],,,,4-1[16:1],,,,8-4[16:1],,8,8,
{4}8b/1-5[16:1],1b/7-3[16:1],7b/2-6[16:1],2b/5-1[16:1],
5b/4-8[16:1],4b/6-2[16:1],6b/3-7[16:1],3b/7b,
{8}45,,45,45,,45,45,45,,45,45,,{16}1-5[16:1],,17,28,1b,,,,
{1}8,7,6,5,4,3,2,1,
{4}8-4[4:3],8,8,8,7-3[4:3],7,7,7,6-2[4:3],6,6,6,5-1[4:3],5,5,5,
4-8[4:3],4,4,4,3-7[4:3],3,3,3,
{16}1-5[16:1],,,1,2,,2,,8-4[16:1],,,8,7,,7,,
18,,2,,18,,7,,1-5[16:1]/8-4[16:1],,2,7,1q6[2:3]/8p3[2:3],,,,
{1}2p3[4:5]/7q6[4:5],,

{8}
1-5[16:1]/3,28,1/7-3[16:1],,7/5-1[16:1],,5,2-6[16:1],
,2/7-3[16:1],,7/1-5[16:1],,1/8-4[16:1],8,8,
2^7[16:1],18,2,3^6[16:1],45,3,,7v2[16:1],
,7,6v3[16:1],6,8-5[16:1],,,,
2-7[16:1]/6-3[16:1],37,2-6[16:1]/6,,26,7^4[16:1],18,2^5[16:1]/7,
,2/7q4[8:1],,7,,18,45,18,
1-5[16:1]/3,28,17,8-4[16:1],,48,,3^6[16:1]/6h[4:1],
,3,2-6[16:1],1,8-4[16:1],,,,
1-3[16:1]/5-7[16:1],48,1-5[16:1]/5,,1/5-1[16:1],,15,8^5[16:1],
,8^3[16:1],,8-4[16:1],,5,6,7,
8v3[16:1],,8,1v6[16:1],,1,,2/7>4[8:3],
,6,7,8,1s5[8:1],,,,
3p7[16:1]/7p3[16:1],37,37,,2-6[16:1],8-4[16:1],2,8,
,1-5[16:1]/2,,1/8-4[16:1],,78,7,2/8<1[8:3],
1>8[4:1]/7,,,,,,,54,
,34,56,,1-5[16:1]/8-4[16:1],,,,

{16}
1-4[16:1]/5,,1-6[16:1]/3,28,17,,1,,8-5[16:1]/4,,8-3[16:1]/6,17,28,,8,,
5-8[16:1]/1,,5-2[16:1]/7,46,35,,5,,1-4[16:1]/7-4[16:1],,4-8[16:1],,17,,,,
5-8[16:1]/1,,5-2[16:1]/7,46,35,,5,,4-1[16:1]/8,,4-7[16:1]/2,35,46,,4,,
2-6[16:1]/8v6[16:1],,6-2[16:1]/4,37,28,,1-5[16:1],,5h[8:1],,1,,8,17,26,,
3-6[16:1]/7,,3-8[16:1]/5,42,31,,3,,2-7[16:1]/6,,2-5[16:1]/8,31,42,,2,,
7-2[16:1]/3,,7-4[16:1]/1,68,57,,7,,3-6[16:1]/1-6[16:1],,6-2[16:1],,31,,,,
7-2[16:1]/3,,7-4[16:1]/1,68,57,,7,,6-3[16:1]/2,,6-1[16:1]/4,57,68,,6,,
4-8[16:1]/2v8[16:1],,8-4[16:1]/6,51,42,,5,,3b/6b,,3b/6b,,3b/6b,

名前:
コメント:

タグ:

+ タグ編集
  • タグ:
最終更新:2015年04月18日 12:01