アットウィキロゴ

りりかSOSメドレー(創作譜面:シトロン&ユリーカ)

曲名 りりかSOSメドレー
制作者名 シトロン&ユリーカ
音源 ---
譜面動画
: nicovideoエラー ( 正しい動画URLを入力してください. )
制作者コメント ---
BPM EASY BASIC ADVANCED EXPERT MASTER
100-160 - - - 11 -

EASY


BASIC


ADVANCED


EXPERT


MASTER

&inote_4=
(139){8}
,,,,
2,4,4,2,,5,6,,
2q4[8:4],,,,,,,,
(138)
1,2,,2,3,,4,,
(138.5)
,5,,,6,4,,8,7,
(138)
1,
(138)
4,,6,6,,2,4,,
(137.5)
,1,2,3,4b,,87,65,

1,2,,2,3,,4,,
(138.5)
,5,,,6,4,,8,7,
(138)
1,
(136)
4,,
(138)
6,6,,2,4,,
,1b,,,4b,,,

{4}7q6[4:8]/2p3[4:8],,,,
,,,,
,,,,
,,,,
,,,,
(143.64)
,,,,

(140){8}
1,2,3,4,5,6,7,8,
(139)
1q2[10:5],,,,,,,
(140)
8,7,6,5,4,3,2,1,
(134.85)
6p5[10:5],,,,,,,,
(138.44)
1,2,3,4,5h[4:1]/6h[4:1],,,,
5,6,7,8,3h[4:1]/4h[4:1],,,,
(139)
1,2,3,4,5h[4:1]/6h[4:1],,,,
5,6,7,8,3h[4:1]/4h[4:1],,,,
1,2,3,4,5h[4:1]/6h[4:1],,,,
5,6,7,8,3h[4:1]/4h[4:1],,,,
(139)
1b,,3b,,5b,,7b,,
5p4[11:5],,,,,,,,

1,2,3,4,5h[4:1]/6h[4:1],,,,
5,6,7,8,3h[4:1]/4h[4:1],,,,

1,2,3,4,5h[4:1]/6h[4:1],,,,
5,6,7,8,3h[4:1]/4h[4:1],,,,
1,2,3,4,5h[4:1]/6h[4:1],,,,
(139.3)
5,6,7,8,3h[4:1]/4h[4:1],,,,
(139)
1b,,3b,,5b,,7b,,
4q5[11:5],,,,,,,,
,,,,
,,,,
,,,,
,,,,
,,,,
,,,,
(140.22)
,,,,,
(138.64)
1,2,3,,6,7,8,,
5,4,3,7,1b,,,,
4,5,6,,3,2,1,,
1,7,3,4,5b,,8b/1b,,

1,2,3,,6,7,8,,
5,4,3,7,1b,,,,
4,5,6,,3,2,1,,
1,7,3,4,5b,,8b/1b,,

1h[4:1],,,,1,2,3,4,
5,6,7,8,1b,,,,
(139.01)
5h[4:1],,,,1,2,3,4,
5,6,7,8,1b,,5b,,

5,4,5,6,5,7,1,3,
5,2,1,3,5,6,8,4,
(140)
8b,,,,8b,,,,
7b/2b,,,,,,,,
(139)
5,4,5,6,5,7,1,3,
5,2,1,3,5,6,8,4,
5,4,5,6,5,7,1,3,
5,2,1,3,5,6,72,,


,,,,
,,,,
,,,,
(109.33){24}
,,,,,

(109){16}
4h[16:3],,3,,5h[8:1],,,,
7h[16:3],,3,,1h[8:1],,,,
1,2,1,,3,4,3,,1s5[14:3],,,,,,,,

{8}
78,76,56,58,
12,34,56,78,

18,45,23,76,
81,81,7b/2b,,

{16}
7^1[16:3],,3,,5h[8:1],,,,
2^4[16:3],,3,,1h[8:1],,,,
1,2,1,,3,4,3,,1s5[14:3],,,,,,,,

{8}
78,76,56,58,
12,34,56,78,

18,45,23,76,
81,81,7b/2b,,

{8}
78,76,56,58,
12,34,56,78,

18,45,23,76,
81,81,7b/2b,6b/3b,
(108.0){16}
4h[16:3],,3,,5h[16:1],,7,,
7h[16:3],,3,,1h[16:1],,3,,
1,3,5,,3,7,5,,8z4[14:3],,,,,,,,

{8}
78,76,56,58,
12,34,56,78,

18,45,23,76,
81,81,7b/2b,,

(109){16}
7^2[16:3],,3,,5h[8:1],,,,
3^6[16:3],,7,,1h[8:1],,,,
1,2,1,,3,4,3,,8z4[14:3],,,,,,,,

{8}
78,76,56,58,
12,34,56,78,

18,45,23,76,
81,8b/1b,7b/2b,,
(105.88)
,,,,,,,
(150.12)
1,,4,4,,3,6,,
1,,7,7,,6,8,,
2,,5,5,,8,8,,
1,,4,5,,3b,5b,7b,
(150.05)
1,,4,4,,3,6,,
1,,7,7,,6,8,,
2,,5,5,,8,8,,
(150.3)
1,,4,5,,3b,7b,5b,


1,,4,4,,3,6,,
1,,7,7,,6,8,,
2,,5,5,,8,8,,
1,,4,5,,3,6,,

1,,4,4,,3,6,,
1,,7,7,,6,8,,
(151)
2,,5,5,,4,,
8,,4,5p2[8:3],,,,,

{4}
,,,,
,,,,
,,,,
,,,,
,,,,
,,,,
,,,,
(151.3)
,,,,,,

(160){8}
1,,4,4,,7,7,,
2,,5,5,,8,8,,
3,,6,6,,2,2,,
(159)
4,,7,,7,7,,5,

1,,4,4,,7,7,,
2,,5,5,,8,8,,
3,,6,6,,2,2,,
4,7,5,6,,2b,3b,,

1,,4,4,,7,7,,
2,,5,5,,8,8,,
3,,6,6,,2,2,,
(159)
42,,75,,7,7,,5,

1,,4,4,,7,7,,
2,,5,5,,8,8,,
3,3,,6,,4,5p3[8:6],
,,,,,,,,,

(159.33){16}
1,2,1,,3,,4,,1,,1,2,5,,4,,
5,6,5,,7,,8,,5,,8,6,3,,7,,
1,2,1,,3,,4,,1,,7,2,5,,8,,
5,6,5,,7,,8,,5,,4,6,3,,4,,


1,2,1,,3,,4,,1,2,,2,5,,8,,
5,6,5,,7,,8,,5,6,,6,3,,4,,

{8}
81,81,7b/2b,
81,81,7b/2b,
81,81,7b/2b,
81,81,7b/2b,
81,81,7b/2b,
(159){16}
8b/1b,,,,,
(157){8}
,,,,,,,,,
5b/7b,6b/8b,,3b/4b,6b/5b,,5b/7b,,
8b/1b,,,,,,,,
1b/2b,3b/4b,,5b/7b,6b/8b,,5b/7b,,
8b/1b,,,,,,,,
2b/4b,6b/8b,,5b/7b,6b/8b,,5b/7b,,
8b/1b,7b/2b,,
{16}
7b/2b,,,8b/1b,,,
{8}
1>7[8:5],,,,,,,,,
81,81,81,7b/2b,,56,43,72,8b/1b,,,,,
8b,,,,6b,,,,,4b,,,,,,,,
2b/4z8[8:30]

(100){1}
,,,,,,,

##comment
↑「#」を一個消して、コピーする。


名前:
コメント:

タグ:

+ タグ編集
  • タグ:
最終更新:2015年05月24日 18:37