アットウィキロゴ

Beat in Angel(創作譜面:4on)

曲名 Beat in Angel
制作者名 4on
音源 スクフェスからSE・VOICEを消して録音してください。
譜面動画
制作者コメント
BPM EASY BASIC ADVANCED EXPERT MASTER
150 - - - - 13

EASY


BASIC


ADVANCED


EXPERT


MASTER

(150)
{16}
1-5[16:1],5,3,7,1^4[16:1],8,1,6,
1,7,5h[8:1],,7,7,2-7[16;1]/5h[8:1],,,5,,4,8^5[16:1],8,
8,,8,2,4h[8:1],,2,2,4h[8:1]/7-2[16:1],,,4,,5,1,1,1,
,18,27,3h[8:6]/6h[16:1],,6,6,,7,,8,,7,,6,7,7,
3,7,4,8,1,5,2,6,1,5,4-8[16:1],8,3,7,4,

,6-1[16:1],6,6,,3-8[16:1],3,3,,5h[8:1],4h[8:1],,,,36,18,
,1,4,2,3,8,5,7,6,1,8,2,7,4,5,3,,
2,4,3,4,7,5,6,5,1,3,1,2,8,6,8,7,8,
7,1h[8:1],,7,2,7h[8:1],,2,6,3h[8:1],,6,3,5h[8:1],,
{8}1,1,1,1,1,1,1,1,1,{32}1,2,3,4,{16}5,6,7,8,1-5[16:1]/8-4[16:1],,,,,,,,

{4}3-6[8:1],8p5[4:1],7h[4:1],{8},2h[2:1],,3,4,5,2v4[8:1]/5v7[8:1],,25,,
{4}7-2[8:1],4p1[4:1],3h[4:1],{8},6h[2:1],,7,8,1,6v3[8:1]/1v8[8:1],61,61,,
7-3[16:1],1,3-7[16:1],5,2-6[16:1],8,6,4h[4:1],,8,5h[4:1],1,3h[4:1],8,6h[8:1],1,
1<6[2:1]/6>3[2:1],,,,,,,8>3[3:1],3<6[3:1],,,,,

8,1-3[16:1]/5-7[16:1],3-5[16:1]/7-1[16:1],15,,,
1,4-2[16:1]/8-6[16:1],6-4[16:1]/2-8[16:1],,,1h[8:1],
8-4[16:1],1-4[8:1]/7-4[8:1],,, ,18,45,27,
{24}1,2,3,8,7,6,1,2,3,8,7,6,2,3,4,7,6,5,2,3,4,
{16}57,6,5,4,38,1,2,3,14,8,7,6,45,3,2,1,{128},{16}
1-5[16:1],{64},{12}1,1,1/7-3[16:1],7,7,2-6[16:1]/7,2,2,2/8-4[16:1],8,8,
5-1[16:1],5,5,3-7[16:1],3,3,6-2[16:1],6,6,4-8[16:1]4,4,4,
{16},,3,7,2,6,1h[8:1],5h[8:1],,,2,6,3,7,4h[2:1],8h[16:7],
{4},,1>4[4:1]/7<4[4:1],1v4[2:1]/7v4[2:1],,,,

{8}1,5h[8:1],,7h[8:1]/2h[8:1],,4h[8:1]/8h[8:1],,3h[8:1]/6h[8:1],,,
1h[4:1]/5h[1:1],,,4h[8:3],,,,,,3,2,1,,1v4[16:1]/8v5[16:1],2-6[2:1]/7-3[2:1],,,,,,,,
18,4>5[2:1]/5,4/5q4[2:1],,,,,,,,
{16}12,12,12,,56,56,56,,34,34,34,,78,78,78,,
45,,2,4,3,7,5,6,1,3,2,8,6,7,1,8,27,,,36,4^2[16:1]/5^7[16:1],,27,,4v7[8:1]/5v2[8:1],,,,,,,,

1v3[16:1]/7v5[16:1],26,3v1[16:1]/5v7[16:1],,,,,,2v4[16:1]/8v6[16:1],37,4v2[16:1]/6v8[16:1],,,,,,
{8}1>4[8:1],8<5[8:1],1v3[8:1],8v6[8:1],1-5[8:1],8-4[8:1],,,
{16}15,26,37,48,15,,15,,48,37,26,15,48,,,,
3,4,5,6,7,8,1,2,{32}3-7[8:1]26,15,48,37,26,15,48,7,{4},
{16}1v3[16:1]/5v7[16:1],26,3v1[16:1]/7v5[16:1],48,,,,,4v2[16:1]/8v6[16:1],37,2v4[16:1]/6v8[16:1],15,,,,,
{4}4q8[8:1]/8q4[8:1],4-1[8:1]/8-5[8:1],4-7[8:1]/8-3[8:1],,
{16}8,4,7,3,6,2,5,1,1,5,2,6,3,7,4,8,58,4,3,2,16,7,8,1,28,7,6,5,48,1,2,3,

4,8,4,8,4,8,5,1,5,1,5,1,6,2,6,2,7,3,6,4,7,3,6^1[8:1],4^1[8:1],5,{8},,,
{16},8,4,8,4,8,4,1,5,1,5,1,5,2,6,2,6,3,7,2,8,3,7,2>5[8:1],8<5[8:1],1,,,,
{8},,1p5[16:1],1v3[16:1],1,1,2-6[16:1]/8-4[16:1],28,,
3h[5:1]/7h[5:1],,2h[13:1]/8h[13:1],3h[13:1]/7h[13:1],4h[13:1]/6h[13:1],1h[4:1]/5h[4:1],,,
,18,1>4[16:1]/8<5,,1-5[16:1]/8-4[16:1],,1-3[16:1]/8-6[16:1],,,,
{16}18,18,1^3[16:1]/8^6[16:1],18,18,18,1v3[16:1]/8v6[16:1],,,,1b/8b,,,,

2^4[8:1],1,8,,27,6,5,,1^4[8:1]/8,36,,27,{24}8,7,6,{16}5,,
7^5[8:1],8,1,,27,3,4,,8^5[8:1]/1,36,,27,{24}1,2,3,{16}4,,
1,5,3,7,1,5,3,7,2,8,4,6,2,8,4,6,
1^3[16:1],5,3,7,1-4[16:1],8,5,6,1-5[16:1],5,4,5,1,6,5,,
2^4[8:1],1,8,,27,6,5,,8^5[8:1]/1,36,,27,{24}1,2,3,{16}4,,
7^5[8:1],8,1,,27,3,4,,1^4[8:1]/8,36,,27,{24}8,7,6,{16}5,,
1,2,2,3,3,4,4,5,5,6,6,7,7,8,8,1,
1-5[16:1],18,18,,1/8-4[16:1],8,18,,2-5[16:1]/8,2,27,,7-4[16:1]/2,7,7,,
3,8,5,6,1,4,3,8,,8,{24}4,5,4,6,5,6,4,6,4,,,,
{1}2^5[1:3]/7h[1:3],,,{64},
{32},8,1,2,{16}3,4,
{8}5,6,
{1},,,,,
,,,
E

名前:
コメント:

タグ:

+ タグ編集
  • タグ:
最終更新:2015年05月29日 19:39