アットウィキロゴ

Aiolos

アーティスト xi

BPM EASY BASIC ADVANCED EXPERT MASTER Re:MASTER
205 4 6 9 12+ 14 -

EXPERT MASTER Re:MASTER
譜面制作者 mai-Star 某S氏 -

EASY


BASIC

(205){1},
{2}1,1,
{2}2,2,
{2}3,3,
{2}4,4,
{2}5,5,
{2}6,6,
{2}7,7,
{2}8,8,
{1}1b/8b,,
{2}1/8,1/8,
{4}2,2,2,,
{2}3,3,
{4}4,4,4,,
{2}5,5,
{4}6,6,6,,
{2}7,7,
{4}8,8,8,,
{2}1/8,1/8,
{4}7,7,7,,
{2}6,6,
{4}5,5,5,,
{2}4,4,
{4}3,3,3,,
{2}2,2,
{4}1,1,1,,
{1}1b/8b,,
{4}1,1,2,2,
{2}1/2,1/2,
{4}3,3,4,4,
{2}3/4,3/4,
{4}5,5,6,6,
{2}5/6,5/6,
{4}7,7,8,8,
{2}7/8,7/8,
{1}1-4[4:3],,
{1}5-8[4:3],,
{1}4-1[4:3],,
{1}1h[1:1]/8h[1:1],,
{1}2h[1:1]/7h[1:1],,
{4},1b/8b,,,{1},
{4}1,1,8,8,
{4}1,8,1,8,
{1}1-5[4:3],,
{4}6,6,5,,
{4}5,5,4,,
{4}4,4,3,,
{4}3,3,2,,
{4}2,2,1,,
{2}1/8,1/8,
{1}8-4[4:3],,
{4}3,3,4,,
{4}4,4,5,,
{4}5,5,6,,
{4}6,6,7,,
{4}7,7,8,,
{2}1/8,1/8,
{1}1-4[4:3]/8-5[4:3],,,,,
{4}8,8,7/8,,
{4}7,7,7/8,,
{4}6,6,5/6,,
{4}5,5,5/6,,
{4}4,4,3/4,,
{4}3,3,3/4,,
{4}2,2,1/2,,
{4}1/8,1/8,1/8,,
{4}1,1,1/2,,
{4}2,2,1/2,,
{4}3,3,3/4,,
{4}4,4,3/4,,
{4}5,5,5/6,,
{4}6,6,5/6,,
{4}7,7,7/8,,
{4}1/8,1/8,1/8,,
{1}2b/7b,,
{4}8,8,1,1,
{4}8,8,1,,
{4}1,1,8,8,
{2}2/7,1/8,
{4}8,8,7,7,
{4}6,6,5,5,
{4}4,4,3,3,
{4}2,2,1/8,,
{4}1,1,8,8,
{4}1,1,8,,
{4}8,8,1,1,
{2}2/7,1/8,
{4}1,2,3,4,
{4}5,6,7,8,
{4}1,1,8,8,
{1}2h[1:1]/7h[1:1],
{8},,,,,,,1b/8b,{1},
{1}1-4[4:3]/8-5[4:3],,
E

ADVANCED

(205){1},
{4}7,8,{2}1-6[2:1],{1},
{4}2,1,{2}8-4[2:1],{1},
{4}3,4,{2}5-1[2:1],{1},
{4}7,6,{2}4-1[2:1]/5-8[2:1],{1},
{1}2b/7b,,
{4}1,1,2,2,
{4}3,3,4,4,
{4}5,5,6,6,
{4}7,7,8,8,
{4}7,6,5,4,
{4}3,2,1/8,1/8,
{4}7/8,7/8,5/6,5/6,
{4}3/4,3/4,1/2,1/2,
{4}3,3,3,3/4,
{4}6,6,6,5/6,
{4}3,3,3,2/4,
{4}6,6,6,5/7,
{4}2,2,1/3,1/3,
{4}7,7,6/8,6/8,
{4}2,1/2,2,1/2,
{4}7,7/8,7,7/8,
{1}1>8[4:5],,
{4}1,2,3,4/5,
{4}6,7,8,1/2,
{4}3,4/5,6,7/8,
{4}1/2,3/8,4/7,5/6,
{4}8,7,6,4/5,
{4}3,2,1,7/8,
{4}6,4/5,3,1/2,
{4}7/8,1/6,2/5,3/4,
{2}6h[2:1],5,
{2}3h[2:1],4,
{2}7h[2:1],6,
{2}2h[2:1],3,
{2}8h[2:1],7,
{2}1h[2:1],2,
{1}7^4[2:1],
{8},2^5[2:1],,,,,,,
{8},6^1[2:1],,,,,,,
{8},3^8[2:1],,,,,,,
{4},1b/8b,,,{1},
{1}1q4[4:5],,
{4}7,6,5,3/4,
{4}2,3,4,5/6,
{4}8,7,6,4/5,
{4}1,2,3,4/5,
{1}6p8[2:1],
{1}3q1[2:1],
{4}8,7,6,5,
{4}4,3,2,1,
{4}4,5,6,7/8,
{4}5,4,3,1/2,
{4}5,6,7,1/8,
{4}4,3,2,1/8,
{1}2p4[2:1],
{1}7q5[2:1],
{4}1,2,3,4,
{4}5,6,7,8,
{8}2b/7b,,,,,,,8<1[8:15],{1},,,,
{4}6h[4:3],5,5,5,
{4}3h[4:3],4,4,4,
{4}7h[4:3],6,6,6,
{4}2h[4:3],3,3,3,
{4}7h[4:3],8,8,8,
{4}2h[4:3],1,1,1,
{4}7h[4:1],8,2h[4:1],1,
{4}1/8,2/7,3/6,4/5,
{4}6h[4:3],5,5,4,
{4}3h[4:3],4,4,5,
{4}7h[4:3],8,8,1,
{4}2h[4:3],1,1,8,
{4}7h[4:3],6,5,4,
{4}2h[4:3],3,4,5,
{4}6h[4:3],7,8,1,
{4}3h[4:3],2,1,8,
{1}2b/7b,,
{4}1,1,3,3,
{4}5,5,7,7,
{4}2,1/3,4,3/5,
{4}6,5/7,8,1/7,
{1}8z4[2:1],
{1}1s5[2:1],
{4}8,6,4,2,
{4}7,5,3,1,
{4}8,8,6,6,
{4}4,4,2,2,
{4}7,6/8,5,4/6,
{4}3,2/4,1,2/8,
{1}1s5[2:1],
{1}8z4[2:1],
{4}1,3,5,7,
{4}2,4,6,8,
{4}1/8,2/7,3/6,4^1[2:1]/5^8[2:1],{1},
{8}1/2,,,7/8,,,1/8,1/8,
{4},2b/7b,
E

EXPERT

(205){8},,,,4,4,5,5,
{16}1,,,1,,,2/8,,,,5,,4,,5,,
{8},1,2,3,4,5,6,,
{16}8,,,8,,,1/7,,,,4,,5,,4,,
{8},8,7,6,5,4,3,,
{8}1/8,,4/5,,3,7,2,6,
{8},1,8,,2/4,,6/8,,
{8}4,,5,,2,2,7,7,
{8},1,8,,2/8,,{4}1q4[8:13]/7p4[8:13],{1},,
{8}2/4,3,,3,,3,,3,
{8},3,4,3,4,3,,6,
{2}6^4[8:1],2^8[8:1],
{4}5h[4:1],4h[4:1],5h[4:1],4,
{8}5/7,6,,6,,6,,6,
{8},6,5,6,5,6,,3,
{2}3^5[8:1],7^1[8:1],
{4}4h[4:1],5h[4:1],4h[4:1],5b,
{4}3/4,5/6,2/4,5/7,
{4}1/3,6/8,1/2,7/8,
{4}1/3,6/8,2/4,5/7,
{4}3/4,5/6,7/8,1/2,
{4}2h[4:3],4,,4,
{4}7h[4:3],5,,5,
{4}1h[4:3],5,5,5,
{8}5,1,6,2,7,3,8,4,
{1}1<5[2:1],
{8}3/4,3/4,5/6,5/6,1/2,1/2,7b/8b,,
{8}3,4,3,6,5,6,5,8,
{8}1,5,3,7,4,8,2,,
{8}7,8,7,2,1,2,1,4,
{8}8,4,7,3,6,2,5,,
{8}1,2,3,8,7,6,3,2,
{8}1,6,7,8,1,2,3,,
{8}6,5,7,4,8,1,3/6,,
{16}6,5,,,3,4,,,6,5,,,3,4,,,
{4}2/4,3,3,3,
{4}3,3/4,3/5,3/6,
{4}5/7,6,6,6,
{4}6,5/6,4/6,3/6,
{2}7/2-6[8:1],2/7-3[8:1],
{2}8/1-5[8:1],1/8-4[8:1],
{16}2,,1/2,,,1/2,,,1/2,,,1/2,,,1/2,,
{16}7,,7/8,,,7/8,,,7/8,,,7/8,,,7/8,,
{16}3,,3/4,,,3/4,,,3/4,,,3/4,,,3/4,,
{16}6,,5/6,,,5/6,,,5/6,,,5/6,,,5/6,,
{4},2q5[1:1]/8p5[1:1],,,{1},
{8}2,1,3,8,4,7,5,6,
{8}3/4,3/4,5/6,5/6,2/7,2/7,1b/8b,,
{16}7/8,,,1/8,,,1/2,,,,1/8,,3/6,,2/7,,
{8},4,6,2,8,1,7,,
{4}5-8[8:1],1,1-4[8:1],7,
{8}7-2[8:1],,3,,4b,4b,,,
{16}6/7,,,5/6,,,4/5,,,,1,,8,,1,,
{16}2/3,,,3/4,,,4/5,,,,8,,1,,8,,
{8}1,5,3,7,1,8,4,6,
{8}2,8,1,5,4-8[8:1],,,,
{16}1/2,,,1/8,,,7/8,,,,4/5,,2/7,,3/6,,
{8},5,3,7,1,8,2,,
{4}4-1[8:1],8,8-5[8:1],2,
{8}2-7[8:1],,6,,5b,5b,,,
{16}1/2,,,1/8,,,7/8,,,,4,,5,,4,,
{16}7/8,,,1/8,,,1/2,,,,5,,4,,5,,
{8}4,8,2,6,4,5,1,7h[4:1],
{8},3,,3,,3,3/4,,
{8}2,1,3,8,4,7,5,5>6[8:13]/6<5[8:13],{1},,
{8}8,8,8,6,6,6,4,4,
{8}4,2,2,2,8-4[8:1],,1b,,
{8}3,3,,4,,5,,6,
{8},2,1,5,6,3h[4:1],,4,
{2}4h[2:1],5h[2:1],
{4}6h[4:1],5h[4:1],4h[4:1],3,
{8}6,6,,5,,4,,3,
{8},7,8,4,3,6h[4:1],,5,
{2}5h[2:1],4h[2:1],
{4}3h[4:1],4h[4:1],5h[4:1],6b,
{4}2-6[8:1],8,7-3[8:1],1,
{4}1-5[8:1],7,8-4[8:1],2,
{4}1-3[8:1],4,8-6[8:1],5,
{4}5,7/8,3/4,1/2,
{4}2-5[8:1],6,6-1[8:1],3,
{4}3-8[8:1],7,7-4[8:1],5,
{4}5-2[8:1],1,1-6[8:1],2,
{4}2,1/3,4/8,5v2[8:5]/7v2[8:5],{1},
{8}3/4,3/4,2/5,2/5,1/6,1/6,7b/8b,,
{16}7/8,,,1/6,,,2/5,,,,1/8,,2/7,,3/6,,
{8},4,6,2,8,1,3/7,,
{4}6-1[8:1],2,2-5[8:1],7,
{8}7-4[8:1],,3,,6b/3-8[8:1],6b,,,
{16}1/2,,,3/8,,,4/7,,,,6,,5,,6,,
{16}7/8,,,1/6,,,2/5,,,,3,,4,,3,,
{8}5,1,7,3,8,1,5,4,
{8}6,3,7,2,8-4[8:1],,,,
{16}1/2,,,3/8,,,4/7,,,,3/6,,2/7,,1/8,,
{8},5,3,7,1,8,2/6,,
{4}3-8[8:1],7,7-4[8:1],2,
{8}2-5[8:1],,6,,3b/6-1[8:1],3b,,,
{16}3/4,,,2/5,,,1/6,,,,7,,8,,7,,
{16}5/6,,,4/7,,,3/8,,,,2,,1,,2,,
{8}8,4,6,2,5,4,8,2h[4:1],
{8},6,,6,,6,5/6,,
{8}1,8,2,7,3,6,4,5<4[8:5],{1},
{8}1/8,,3/4,2/5,,5/6,4/7,{16}8b/1-5[16:3],,,,,,,,
E

MASTER

(205)
{2}
,
{16}
5,4,3,2,
1-4[32:3],8,7,6,
1-3[32:3],,,1-6[32:3],,,
{8}
1,,8,1,27,,3,5,
46,4,2,8-5[32:3],6,
{16}
8-6[32:3],,,8-3[32:3],,,
{8}
8,,8,1,27,,6,4,35,
5,7,1,3,45,4,46,6,
26,2,28,17,,26,37,,
16,,48,26,45,45,
36,36,27,27,18,18,
{16}
1,8,1,8,2,7,
2,7,3,6,3,6,
4-1[16:3],
5-8[8:1],4,5,
{2}4b,,,{8}
45,,3b/5b,,2h[2:1]/6,5,6,5,
6,1,,28,7h[2:1]/3,4,3,4,3,8,,17,
{16}
34,,,2,,,8,,56,,,7,,,1,,
{4}
28,16,37,25,
{8}
3h[2:1]/8,7,8,7,6,4,,37,
6h[2:1]/1,2,1,2,3,5,,26,
{4}
1-6[8:1],1,7-4[8:1],
3-8[8:1]/7,5-1[8:1]/3,
4-8[8:1]/5,6-1[8:1]/4,3b/6b,
{8}
35,46,35,46,1,8,,27,
46,35,46,35,8,1,,27,
{16}
35,,,36,,,37,,36,,,26,,,16,,
78,,,12,,,47,,,25,,,46,,35,,
{8}
48,4,4,4,4,4,4,4,
46,6,6,6,6,6,6,6,
26,2,2,2,28,8,8,8,
{16}
1,8,1,8,1,8,1,8,
{32}
1,2,3,4,5,6,7,8,
1,2,3,4,5,6,7,8,
{1}
1q7[2:1]/5q3[2:1],
{16}
1,2,3,4,8,7,6,5,2,3,4,5,6,7,8,1,
5,4,,6,5,,7,,1,2,3,4,5,6,7,8,
1,2,3,4,1,2,3,4,8,7,6,5,4,3,2,1,
8,7,6,5,1,2,3,4,8,7,6,5,1,2,3,4,
8,7,6,5,8,7,6,5,8,7,6,5,4,3,2,1,
5,4,3,2,1,,5,4,3,2,1,,4,3,2,1,
4,5,6,7,8,,4,5,6,7,8,,5,6,7,8,
1,2,3,4,8,7,6,5,1,2,3,4,8,7,6,5,
1,8,1,8,2,7,2,7,3,6,3,6,4,5,4,5,
{4}
4b,45,4h[2:1]/5,6,
6h[2:1],1,1h[2:1],7,
7h[2:1],3,3h[2:1],8,
8p5[2:1],1,2,3,
{16}
4,,4,,4,,4,,5,,5,,5,,5,,
4,5,4,5,4,5,4,,35,,,47,,,
1-5[32:1]/5,,,,8-4[32:1],,,
2-5[32:1],,,7-4[32:1],,,
3-6[32:1],,,8-4[32:1],,,,
1-5[32:1],,,7-4[32:1],,,
2-5[32:1],,,6-3[32:1],,,
4-8[32:1],,,,5-1[32:1],,,
3-8[32:1],,,6-1[32:1],,,
2-7[32:1],,,5-1[32:1],,,,
4-8[32:1],,,6-1[32:1],,,
3-8[32:1],,,7-2[32:1],,,1,,,,,,
{4}
2b/7b,,,,,,,
{16}
1,2,3,4,5,6,7,8,15,4,3,2,1,8,7,6,
15,2,3,4,58,7,6,5,14,2,3,4,58,7,6,5,
14,,,37,,,15,,,,4,5,4,,18,,,,
5,,37,,,,6,,1,8,1,,26,,,,
3,,18,,,,25,,47,,,,18,,,,
4,,6h[4:1],,,,8,,2b/7b,,,,,,,,
68,,,35,,,28,,,57,,,24,,,13,,,
46,,,17,,,24,,,57,,,
8b,7,6,5,4,,1b,2,3,4,5,,
8b,7,6,5,4,,1b,2,3,4,5,,
8b,7,6,5,1b,2,3,4,
58,,,26,,,48,,,,5,4,5,,
18,,,,4,,26,,,,3,,8,1,8,,
37,,,,6,,18,,,,47,,25,,,,18,,,,
5,,3h[4:1],,,,1,,2b/7b,,,,,,,,
13,,,46,,,17,,,24,,,57,,,68,,,
35,,,28,,,57,,,24,,,1,5,2,6,3,7,4,8,
5,1,4,8,3,7,2,,,,15,,,,48,,,,
26,,37,,,,18,2,3,4,5,6,7,
8,15,26,37,48,15,26,
{2}
3q5[8:13]/7q1[8:13],,,,
{16},,
4,,6,,6,,2,,2,,8,,8,,
1,8,1,8,1,8,1,8,1,8,
1-5[8:1],,,,1b/8b,,,,
{8}
6,,6,,6,4,6,4,3,,3,,3,5,3,5,
{16}
3h[8:3],,,2,,,8,,6h[8:3],,,7,,,1,,
{8}
48,,16,,37,,25,,8,,8,,
8,2,8,2,1,,1,,1,7,1,7,
{4}
1-5[8:1],8,8-4[8:1],
2-5[8:1],7-4[8:1]/2,
1-6[8:1]/7,8-3[8:1]/1,1b/8b,
{8}
4,5,4,5,4,5,4,5,3,6,3,6,
3,6,3,{16}6,3,
7,,2,,7,,2,,7,,2,,
7,,2,,18,,,13,,,
68,,,45,,,27,,4,5,4,,4,,4,,
4,,4,,4,,4,,4,5,6,,6,,6,,
6,,6,,6,,6,,6,7,8,,8,,8,,
8,1,2,,2,,2,,2,3,46,,,
35,,,47,,,25,,,48,,
5,2,8z4[2:1],,,,,,,,,,,,,,,,
2,5,4,5,2,5,4,5,2,5,4,,3b/6b,,,,
1h[16:3]/8,,,2,,,36,,,,4,5,4,,
3-7[8:1]/6,,,,13,,2,,,,1,,7,8,7,,
1-5[8:1]/6,,,,13,,2,,,,4,,6,,8,,
17,,,,12,,38,,
1-4[8:1]/2-6[8:1],,,,1b/2b,,,,,,,,
13,,,35,,,57,,,17,,,13,,,
38,,,16,,,47,,,25,,,38,,,
1h[4:1]/7,6,5,4,3,,8h[4:1]/2,3,4,5,6,,
1h[4:1]/7,6,5,4,3,,8h[4:1]/2,3,4,5,6,,
1h[4:1]/7,6,5,4,3b,,,,8h[16:3]/1,,,7,,,
36,,,,5,4,5,,
6-2[8:1]/3,,,,68,,7,,,,8,,2,1,2,,
8-4[8:1]/3,,,,68,,7,,,,5,,3,,1,,
28,,,,78,,16,,
7-3[8:1]/8-5[8:1],,,,7b/8b,,,,,,,,
68,,,46,,,24,,,28,,,
68,,,16,,,38,,,25,,,
47,,,16,,,4,5,4,5,4,5,4,5,4,5,4,5,
4,,35,,,,47,,,,26,,,,18,,27,,,,
18,7,6,5,4,3,2,1,48,37,26,15,48,37,
{8}
2q8[2:1]/6q4[2:1],,,,,,,,,
8-4[8:1]/2,,38,1-5[8:1],,
16,7-3[8:1],2-6[8:1],,,
{1}8b,,E

Re:MASTER


  • MASTER/一応作りました。実際に再生してみて「ここが違う」という部分があれば修正よろしくお願いします -- Sea (2015-10-17 02:48:02)
  • MASTER/870ノーツ目以降にホールドミスがあったので修正しました -- Sea (2015-10-18 07:51:08)
  • MASTER譜面のノーツの配置ミス、SLIDEの速度の修正を行いました。 -- けもがみ (2026-04-14 05:56:19)
名前:
コメント:

タグ:

+ タグ編集
  • タグ:
最終更新:2026年10月04日 21:00