EASY
BASIC
ADVANCED
EXPERT
MASTER
(150)
{32}1,2,3,4,5,6,7,8,1,2,3,4,5,6,7,8,
{12}1h[4:3],2,3,4,5,6,
{16}7>4[8:3],,,,,,,,,,
{32},15,26,37,
{4}8h[32:16]/4,,7h[2:1],,6h[2:1],,5h[4:1],
1h[2:1],,2h[2:1],,3h[2:1],,4>5[1:1]*q5[1:1],
4b,,,,,,,
{8}16,45,,83,,45,,68,,45,,18,6-3[8:1]/3,,
1,1h[4:1],,3h[4:1],,5h[4:1],,7h[4:1],,1h[4:1],,3,3-6[8:1],,
8,8h[4:1],,6h[4:1],,4h[4:1],,2h[4:1],,8h[4:1],,
{32}6,,6,,1,2,3,4,5,6,7,8,1bv3[8:1]/5bv7[8:1],,,,,,,,,,,,,,,,
{16},,1,2,,,6,5,,,7,,8,,
1,,2q4[4:1],,8,7,6,,,,,,8,,
,,7,,,,6,,,,7,,,,
6,,7p5[4:1],,1,2,3,,,,,,,,
,,3,,4,,5,,,,,,,,
4,,5pp2[4:1],,,,
{32}1,2,3,,,,,,,,,,4,,,,
{8},3,,2,,15,26,
{32}37,,,,48,1,2,3,4,5,6,7,
{4}3/8h[2:1],2,1-3[16:1],
{16}1-5[8:1]/6,,6,,17,7,,,18,18,,24,,57,
,2^5[16:3]/4,,,6,6,,7,7,,8-6[16:1]/1,,,,
8-4[8:1]/3,,3,,28,2,,,18,18,,57,,24,
,7^4[16:3]/5,,,3,3,,2,2,,1-3[16:1]/8,,,,
1-5[8:1]/6,,6,,17,7,,,18,18,,24,,57,
,2^5[16:3]/4,,,6,6,,7,7,,8-6[16:1]/1,,,,
8-4[8:1]/3,,3,,28,2,,,18,18,,57,,24,
,18,,,6,,6,3,,3,45,,45,,
3,7,3,7,2,6,2,6,1,5,1,48,,26,,48,
3,7,2,6,1,5,8,8,6,6,4,4,
6,2,6,2,7,3,7,3,8,4,8,15,,37,,15,
6,2,7,3,8,4,
{24}7,6,5,2,3,4,7,6,5,
{16}1,8,
2,7,3,6,4,5,4,6,4,35,,25,,15,
2,7,3,6,4,5,2,2,4,4,8,8,,,
27,,36,36,,18,,7,6,5,4,3,2,1,
4p7[8:1]/8p3[8:1],,,,,,
,,48,15,26,37,
8b-4[16:1]/4,,,2b-6[16:1]/8,,,7b-3[16:1]/2,,,5bV38[8:1]/7,
,,8,,6,,5,5,5,5,
1b-5[16:1]/5,,,7b-3[16:1]/1,,,2b-6[16:1]/7,,,4bV61[8:1]/2,
,,1V37[6:1],,3,,,,,,
8b-4[16:1]/4,,,2b-6[16:1]/8,,,7b-4[16:1]/2,,8,,
1,,2,,3,,45,,45,,
1b-5[16:1]/5,,,7b-3[16:1]/1,,,2b-6[16:1]/7,,,4bV61[8:1]/2,
,,1,,3,,48,37,26,15,
4b^7[16:1]/8b^3[16:1],,,4b-1[16:1]/8b-5[16:1],,,8b-3[16:1]/4,,,6bV48[16:3],
,,1,,2,,3,3,3,,
8b^5[8:1]/1h[16:3],,,,8b-3[8:1]/1,,1,,8b-5[8:1]/2h[16:3],,
,,2z6[16:3]/8,,2,,,,,,
{24}7,,,1b/8b,2b/7b,3b/6b,4b/5b,,,18,,,
{12}26,26,26,
{16}3V15[4:1]/7,,48,,7,,6,,
8-4[16:3],,,4w8[16:7],,,,,,,
,,,,,,1p4[8:1]/8q5[8:1],,,,
{8}1b/8b,,2,2h[4:1],,6,6h[4:1],,
4,4h[4:1],,8,8h[2:1],7,6,5,
4q5[4:1],,5<4[8:3],,,,,,
{16}2b/7b,,,,56,,56,,,,34,,34,,,,
5,4,5,,36,,27,,8qq5[2:1]/1,,,,,,,,,,
{24}4,3,2,1b,,,,,,,,,
{16},,,,1p5[8:1]/5p1[8:1],26,37,48,
1b>4[8:1]/5b<8[8:1],,,,15,,,,1,2,8>3[8:1]*<5[8:1],3,7,,
8bw4[8:1],,,,8,,,,8,7,1>4[8:1]*<6[8:1],6,2,,
1bw5[8:1],,,,1,,,,35,,1h[4:1]/7>5[2:1],,,,
,,,,6,,7,,8,,1,,2,,
3b,6,4,6,5,6,7,6,8,6,1,6,2,2,
6,3,5,3,4,3,2,3,1,3,8,3,7,7,
3,5,4,6,4,5,2,4,3,7,5,6,1,3,
2,8,6,7,1b/8b,,,8,7,6,
{32}3,4,5,6,7,8,1,2,3bV51[8:1]/5h[4:1],,
{16},,,,,,,1,7,2,6,35,,
6bV48[8:1]/4h[4:1],,,,,,,,8,2,7,3,46,,
5h[8:1]/7h[8:1],,,2h[8:1]/4h[8:1],,,6h[8:1]/8h[8:1],
,,1h[8:1]/3h[8:1],,,5,4,
,3h[8:1]/7h[8:1],,,1h[8:1]/5h[8:1],,,
{24}2-7[16:1]/6-3[16:1],37,48,15,,,
{16},,4,5,3,6,2,7,
1b/8b,,,,2,,6,,,,3q5[16:9],,7q1[16:7],,,,,,,,,,,,,,,,
{4}3b-7[16:1]/4b,2b-6[16:1]/3b,1b-5[16:1]/2b,8b-4[16:1]/1b,
7b-3[16:1]/8b,6b-2[16:1]/7b,5bw1[8:1]/6b,5b,{32},
{8},,1h[512:1],,,,2h[512:1],,,,3h[512:1],,,,4h[512:1],,,,
5h[512:1],,,,6h[512:1],,,{32},,,
{8}7,7p1[4:1],,1p3[4:1],,3p5[4:1],,5^2[4:1],,2<6[4:1],,5,4,,
2,2q8[4:1],,8q6[4:1],,6q4[4:1],,4^7[4:1],,7>3[4:1],,4,5,,
{16}6,5,6,7,6,,3,4,3,,7,8,7,,2,1,2,,5,4,6,4,7,4,
{32}8,1,2,3,4,5,6,7,
{16}3,4,3,2,3,,6,5,6,,2,1,2,,7,8,7,,4,5,3,5,2,5,
{32}1,8,7,6,5,4,3,2,
{16}6,5,6,7,6,,3,4,2,,7,8,6,,2,1,3,,6,5,7,5,8,5,
{32}1,2,3,4,5,6,7,8,
{16}1b-6[16:1]/5b-2[16:1],,,15,,,7V15[16:3]/3,,,,3,,2,,
1b>4[8:1]*<6[8:1],,,,1b,,,,5,4,
{32}3b,2b,1b,8b,7b,6b,5b,
{1},,
E
Re:MASTER
- MASTERの書式ミスでエラーを吐くので直しときました。 -- 嵐雅 (2021-09-10 22:49:06)
- MASTER譜面のブレイク始点のスライドがブレイクスライドになっていたため修正致しました。--けいとん (2026-2-14 22:38:37)
- MASTER譜面のノーツの配置ミス、SLIDEの速度、HOLDの終点の修正を行いました。 -- けもがみ (2026-02-25 21:37:50)
最終更新:2026年10月04日 21:00