EASY
BASIC
ADVANCED
EXPERT
MASTER
(135){16}
5^2[8:1],,6,,,,1-5[8:1],1,,,,,2b,,,,
8^3[8:1],,7,,,,4,4,,,,,,,,,
4^7[8:1],,3,,,,8-4[8:1],8,,,,,7b,,,,
1^6[8:1],,2,,,,5,5,,,4,5,6,7,8,1,
8^3[8:1],,7,,,,4-8[8:1],4,,,,,7b,,,,
1^6[8:1],,2,,,,5,5,,,3,3,2-6[8:1],,2,,
7-3[8:1],7,,1,1,,8,8,,,,,1-6[8:1],,,,
{4}
8-3[8:1],2-5[8:1],7-4[8:1],,
{16}
1b,,,,8,7,,8,,1,2,,3-8[8:1],,,,
{8}
,7-4[8:1],,3^8[8:1],,7^4[8:1],,,
{16}
1b,,,,1,2,,1,,8,7,,8^5[8:1],,1,,
8-4[8:1],,,,,,8^3[8:1],,,,,,,,4,4,
,,,,8,7,,8,,1,2,,3-8[8:1],,,,
{8}
,7-4[8:1],,3^8[8:1],,7^4[8:1],,,
{16}
3,2,,2,,1,8,7,,7,,8,1,2,,8,
{32}
7,,,,8,,,,1,,,,2,,,,1,,8,,7,,6,,7,8,1,2,3,4,5,6,
{16}
7-4[8:1],,,,2,,2-5[8:1],,,8,8-4[8:1],,,,,,
2-5[8:1],,,,7,,7-4[8:1],,,1,1-5[8:1],,,,,,
7-4[8:1],,,,2,,2-5[8:1],,,8,8-4[8:1],,,,,,
3,2,,2,1,2,,2,3,4,5,6,,7,,,
7-4[8:1],,,,2,,2-5[8:1],,,8,8-4[8:1],,,,,,
2-5[8:1],,,,7,,7-4[8:1],,,1,1-5[8:1],,,,,,
8,,,26,,,1,,,37,,,64,,,,
5,,,2,,,8,,18,,,,7/8^3[4:1],,,,
{4}
,4,,5,
,6,,8/7^4[4:1],
,3,,2,
,1,,8,
{16}
6,,,,,7,7,,8,,,1,,2,2,,
1,,8,,,1,2,3,4,5,,6^3[4:1],5,,6,,
,,,,8,7,,1,,2,3,,2,,81,,
{8}
7^2[16:1],,7^4[16:1],3,8^3[16:1],3,,4,
{16}
,,,,6,5,,6,,8,1,,2,,1,,
8,,17,,82,,,,1,,,8,8,,7,,
,,,,1,2,,8,,7,6,,7,,18,,
{8}
2^7[16:1],,2^5[16:1],6,1^6[16:1],6,,5,
{16}
,,,,2,2,,8,8,,1,2,3,,2,2,
1,1,,8,7,8,,1,2,1,8,7,6h[4:1],,,,
5b,,,,3,3-8[8:1],,7,6-1[8:1],,6,,,,,,
{8}
4/7^2[16:1],,7^4[16:1],3,8^3[16:1],3,,4,
{16}
,,,,2-6[8:1],1,,8,8-4[8:1],,7,,1-5[8:1],,,7,
{8}
7-3[8:1],,2^7[8:1],,6-1[8:1],2^5[16:1],,,
{16}
,,,,6,6-1[8:1],,2,3-8[8:1],,3,,,,,,
{8}
5/2^7[16:1],,2^5[16:1],6,1^6[16:1],6,,5,
{16}
,,,,3-8[16:1],,8^5[16:1],,,,,,4,,2,2,
1,1,,8,7,8,,1,2,1,8,7,6h[4:1],,,,
7,8,1,2,3b,,,,
{2}
2h[1:2]/1-6[8:1],6-3[8:1],
3-7[8:1],8-5[8:1],
{16}
1b,8b,7b,6b,5b,,,,,,,,,,,,
{1}
,
,
E
Re:MASTER
(135)
{16}3^8[8:1],4,,4,3,,7-3[8:1],7,,,{8}1,2,3,{16}2^5[8:1],1,,1,2,,8-4[8:1],8,,,{8}7b,,,
{16}6^1[8:1],5,,5,6,,2-6[8:1],2,,,{8}8,7,6,{16}7^4[8:1],8,,8,7,,3,3h[16:5],,,4,5,6,7,8,1,
{16}2-6[8:1],2,,5,5,,7-3[8:1],7,,,{8}6,5,4,{16}3-7[8:1],3,,8,8,,6-2[8:1],6,,,1,1,8,,7,,
6,6h[16:3],,5,5h[16:3],,4,4h[16:3],,3,3,,{8}2-5[8:1],,6-1[8:1],7,3-8[8:1],2,7-4[8:1],6,1,,
1b/8b,,{16}8,7,,8,,1,{8}2,34,,5,7^4[8:1],{16}3,3,,2-7[8:1],,3,{8}3,6-3[8:1],4,
2,,{16}1,2,,1,,8,{8}7,8^5[8:1],1,8-4[8:1],,8,1^4[8:1],,1-5[8:1],,{16}6,6,
{8},,{16}1,2,,1,,8,{8}7,65,,4,2^5[8:1],{16}6,6,,7-2[8:1],,6,{8}6,3-6[8:1],5,
{16}8,8,,1,,2,3,4,,7,,8,1,2,,8,7,,8,,1,,2,,1,8,7,6,{32}7,8,1,2,3,4,5,6,
{16}7-2[8:1],,1,1,7-3[8:1],,1,1,7^4[8:1],,1,1,{4}7,{16}2-7[8:1],,8,8,2-6[8:1],,8,8,2^5[8:1],,8,8,2,,8,,
7-2[8:1],,1,1,7-3[8:1],,1,1,7^4[8:1],,1,1,{4}7,{16}2,2,,1,8,1,,2,3,4,5,6,,47,,,
2-7[8:1],,8,8,2-6[8:1],,8,8,2^5[8:1],,8,8,{4}2,{16}7-2[8:1],,1,1,7-3[8:1],,1,1,7^4[8:1],,1,1,7,,1,,
2,,,35,,,7,,,64,,,25,,,47,47,,,6-2[8:1],,,3,,{4}4-8[4:1],8^3[4:1],
,4,,5,{16}6,,6,,5,5,5,5,{4},1^6[4:1]/2,,5,,4,{16}3,,3,,4,4,4,4,{4},78,
6,{16},7,7,,8,,,1,,2,2,,1,,8h[16:3],,,1,2,3,4,5,,6,5,,47,,
8b,8b,8b,8b,3,4,,25,,7,{8}8,16,38,2h[4:1],1,{16}8-4[8:1],7,6,,5-1[8:1],6,7,,8,7,6,,
2,,24,,6,5,,74,,2,{8}1,83,6/1h[4:1],5,8h[4:1],4,1,6-1[8:1],1-4[8:1],,3,
2,25,{16}6,5,,74,,2,{8}1,83,61,7h[4:1],8,{16}1-5[8:1],2,3,,4-8[8:1],3,2,,1,2,3,,
7,,75,,3,4,,6,5,,8,1,2,,1,8,7,6,,1,2,3,,6,4b/7b,4b/7b,4b/7b,4b/7b,{4}3b/8b,
25,{16}7,7h[4:1],,6,,2,{8}2h[4:1],3,5,7^2[8:1],3,{16}7^4[8:1],4,4,,8^3[8:1],1,1,,8,6,6,,
47,,8,,1,1h[16:5],,2,,3,3h[16:5],,4,,5-8[8:1],5,,6,,7,{8}7^2[8:1],1,3^6[8:1],,8,8,
74,,{16}2,2h[4:1],,3,,7,{8}7h[4:1],6,4,2^7[8:1],6,{16}2^5[8:1],5,5,,1^6[8:1],8,8,,1,3,3,,
52,,6,,7,7h[16:3],,5,5,,48,37,2/6h[4:1],,8,1,2,3,,8,7,6,,3,5b/2b,5b/2b,5b/2b,5b/2b,{4}6b/1b,
{16}4b/7b,4b/7b,4b/7b,4b/7b,{4}3b/8b,,34,,56,{16}36,,36,,45,45,45,45,
{4},6,{16}1b/8b,2b/7b,3b/6b,4b/5b,{1}1b,,,,E
- Re:MASTER譜面を追加しました。修正等ありましたらよろしくお願いします。 -- けもがみ (2026-04-07 22:27:04)
最終更新:2026年10月04日 09:44