アットウィキロゴ

CITRUS MONSTER 蛸

曲名 CITRUS MONSTER
制作者名 シラミィ
音源
譜面動画
制作者コメント ---
BPM EASY BASIC ADVANCED EXPERT MASTER
220 - - 2 - -

EASY


BASIC


ADVANCED

(220)

{8}26,,48,,34,56,34,56,
34,3q8[8:1]/4^7[8:1],,34,,,15,,
28,,37,,56,34,56,34,
67,6qq5[8:3]/7qq5[8:3],,78,81,12,23,,
73,,51,,65,43,65,43,
65,6p1[8:1]/5^2[8:1],,65,,,84,,
71,,62,,43,65,43,65,
32,3pp4[8:3]/2pp4[8:3],,21,18,87,76,,

1-3[8:1]*^3[8:1]/7,,1-5[8:1]*-4[8:1]/6,,15,,18,18,
8-6[8:1]*^6[8:1]/2,,8-4[8:1]*-5[8:1]/3,,84,,36,,
1^4[8:1]*-4[8:1]/7,,1-6[8:1]*-5[8:1]/6,,15,,18,18,
8^5[8:1]*-5[8:1]/2,,8-3[8:1]*-4[8:1]/3,,84,,45,,
56,56,47,47,38,38,12,12,
{16}34,56,34,56,23,67,23,67,12,78,12,78,
{32}15,84,73,62,15,84,73,62,
{4}1q4[1:1]*-4[1:1]/5,,,1h[64:1]/8h[64:1],,,
{16}34,56,34,56,3b/7b,,,,

{4}2/6h[2:3],7h[4:5]/8,34,18,
{8}21,18,21,18,2-5[8:1]*-6[8:1]/1,,,,
{4}6h[4:1]/5h[4:1],78,4h[4:1]/3h[4:1],17,
{8}21,18,21,18,2h[4:1]/1,,86,,
{4}7/3h[2:3],2h[4:5]/1,65,81,
{8}78,81,78,81,7-4[8:1]*-3[8:1]/8,,,,
{4}3h[4:1]/4h[4:1],21,5h[4:1]/6h[4:1],82,
{8}78,81,78,81,7h[4:1]/8,,13,,

45,1h[8:1]/7h[8:1],45,2h[8:1]/8h[8:1],
45,1h[8:1]/7h[8:1],45,2h[8:1]/8h[8:1],
45,1-6[8:1]/8-3[8:1],45,18,45,18,2b/7b,,
45,2h[8:1]/8h[8:1],45,1h[8:1]/7h[8:1],
45,2h[8:1]/8h[8:1],45,1h[8:1]/7h[8:1],
{16}45,,15,26,37,48,15,,48,37,26,15,48,,,,
{8}45,1h[8:1]/3h[8:1],45,8h[8:1]/6h[8:1],
45,1h[8:1]/3h[8:1],45,8h[8:1]/6h[8:1],
45,1-5[8:1]/8-4[8:1],45,18,27,45,1b/8b,,
{2}8-3[8:1]*-5[8:1]/7-2[8:1]*-4[8:1],
1-4[8:1]*-6[8:1]/2-5[8:1]*-7[8:1],
{4}5-2[8:1]/6-1[8:1],
3-8[8:1]/4-7[8:1],
1-5[8:1]*-6[8:1]/8-4[8:1]*-3[8:1],,

5h[2:1]/6h[2:1],78,4h[2:1]/3h[2:1],12,
1h[4:1]/6h[4:1],2h[4:1]/7h[4:1],3h[4:1]/8h[4:1],,
4h[2:1]/3h[2:1],21,5h[2:1]/6h[2:1],87,
8h[4:1]/3h[4:1],7h[4:1]/2h[4:1],6h[4:1]/1h[4:1],,
1h[2:1]/2h[2:1],34,8h[2:1]/7h[2:1],56,
5h[4:1]/2h[4:1],6h[4:1]/3h[4:1],7h[4:1]/4h[4:1],,
8h[2:1]/7h[2:1],65,1h[2:1]/2h[2:1],43,
4h[4:1]/7h[4:1],3h[4:1]/6h[4:1],2h[4:1]/5h[4:1],,
{1}4bqq1[2:1]/5bpp8[2:1],
{8},8-3[8:1]/7-4[8:1],3-7[8:1]/4-8[8:1],87,
1-5[8:1]*^6[8:1]/2-6[8:1]*^5[8:1],,,,
3h[4:1]/4h[8:3],5h[4:1]/6h[8:1],,27,,45,,18,
,1-6[8:1]/2-5[8:1],6-2[8:1]/5-1[8:1],12,
8-4[8:1]*^3[8:1]/7-3[8:1]*^4[8:1],,,,
8h[1:1]/6h[4:1],,1h[4:3]/3h[4:1],,
6h[2:1]/7h[2:1],,2h[4:1]/3h[4:1],,
,4-8[8:1]/5-1[8:1],1s5[8:1]/8z4[8:1],
4^1[8:1]/5^8[8:1],,,,,
5h[1:1]/7h[4:1],,4h[4:3]/2h[4:1],,
7h[2:1]/6h[2:1],,3h[4:1]/2h[4:1],,
,78,12,67,23,56,34,,

{1}1bq3[4:7]*p7[4:7]/5bq7[4:7]*p3[4:7],,,,
7h[1:4]/8h[1:4],1h[1:3]/2h[1:3],
5h[1:2]/6h[1:2],3h[1:1]/4h[1:1],
{8},,27,,5-2[4:1]/6^1[4:1],56,,,
,,12,,3^8[4:1]/4-7[4:1],34,,,
,,78,,4>5[4:5]/6<5[4:5],4q6[8:3]/6p4[8:3],{4},,,,,
{8},,72,,4-7[4:1]/3^8[4:1],43,,,
,,87,,6^1[4:1]/5-2[4:1],65,,,
,,21,,5<4[4:5]/3>4[4:5],5p3[8:3]/3q5[8:3],{4},,,,,

,56,34,56,34,56,34,56,24,57,24,57,24,57,24,57,
2h[1:1]/4h[1:1],45,34,45,7h[1:1]/5h[1:1],54,65,54,
2h[1:1]/4h[1:1],45,34,45,7h[2:1]/5h[2:1],54,
1-5[8:1]*v6[8:1]/8-4[8:1]*v3[8:1],1b/8b,
{8}4<4[4:13]/5>5[4:13],45,45,45,45,45,45,45,
45,45,45,45,45,45,45,45,
36,36,36,36,27,27,27,27,
18,18,18,18,18,18,18,18,
{16}12,78,12,78,12,78,12,78,12,78,12,78,12,78,12,78,
13,68,13,68,13,68,13,68,13,68,13,68,13,68,
1q4[8:5]*-5[8:5]/3q5[8:5]*>4[8:5],
8p5[16:9]*-4[16:9]/6p4[16:9]*<5[16:9],
{1},{4}57,24,4^1[8:1]/5^8[8:1],4b/5b,

{16}78,,23,18,23,,45,23,
45,,35,,26,,1/7q4[8:1]*v4[8:1],,
,,68,71,8/2h[4:1],,15,26,
37,,12,,38,,4p7[8:1]*v7[8:1]/7,,
,,75,64,5h[4:1]/3,,84,15,
26,,34,,25,,1/6p1[8:1]*v1[8:1],,
,,17,26,3h[8:1]/5h[8:1],,18,27,36,,45,,36,,27,,
81,,76,81,76,,54,76,
54,,64,,73,,8/2p5[8:1]*v5[8:1],,
,,31,28,1/7h[4:1],,84,73,
62,,87,,61,,5q2[8:1]*v2[8:1]/2,,
,,24,35,4h[4:1]/6,,15,84,
73,,65,,74,,8/3s7[8:5]*-7[8:5],,
{4},34,78,1b/8b,

{8}18,8-2[8:1]/7-3[8:1],76,8-4[8:1]/7-5[8:1],
18,8-2[8:1]/7-3[8:1],76,8-4[8:1]/7-5[8:1],
18,8-2[8:1]/7-3[8:1],76,8-4[8:1]/7-5[8:1],
18,87,1b/2b,,
4-8[8:1]/5-1[8:1],24,4^1[8:1]/5^8[8:1],57,
4z8[8:1]/5s1[8:1],24,4^1[8:1]/5^8[8:1],57,
{16},,7b/5b,64,35,,2b/4b,35,46,,4b/5b,,1b/8b,,,,
{8}81,1-7[8:1]/2-6[8:1],23,1-5[8:1]/2-4[8:1],
81,1-7[8:1]/2-6[8:1],23,1-5[8:1]/2-4[8:1],
81,1-7[8:1]/2-6[8:1],23,1-5[8:1]/2-4[8:1],
81,12,8b/7b,,
1-5[8:1]/8-4[8:1],24,1^4[8:1]/8^5[8:1],57,
1s5[8:1]/8z4[8:1],24,1^4[8:1]/8^5[8:1],57,
1b-4[8:1]/8b-5[8:1],,,,
{12}87,65,87,12,34,12,

{8}8-3[8:1]/7-4[8:1],87,2-5[8:1]/1-6[8:1],12,
4-1[8:1]/5-8[8:1],45,2-7[8:1]/3-6[8:1],23,
7-5[8:1]/8-4[8:1],78,12,12,
{16}8-4[8:1]*-5[8:1]/1,,,12,8b/7b,,23,,
{8}1-6[8:1]/2-5[8:1],12,7-4[8:1]/8-3[8:1],87,
5-8[8:1]/4-1[8:1],54,7-2[8:1]/6-3[8:1],76,
2-4[8:1]/1-5[8:1],21,87,87,
{16}1-5[8:1]*-4[8:1]/8,,,87,,,76,,
{8}4-1[8:1]/5-8[8:1],45,2-7[8:1]/3-6[8:1],32,
8-3[8:1]/7-4[8:1],87,2-5[8:1]/1-6[8:1],21,
5-7[8:1]/4-8[8:1],54,32,32,
{16}4-8[8:1]*-7[8:1]/3,,,32,4b/5b,,21,,
23,67,23,67,34,78,34,78,45,81,45,81,
5pp4[2:1]/6qq7[2:1],2qq3[16:7]/1pp8[16:7],56,12,
{4},,,2b/7b,

{8}2h[2:1]/7,,53,64,75,7-4[8:1]/5-2[8:1],,75,
,3v8[8:1]/4-7[8:1],7q4[8:1]/8^3[8:1],34,
5-2[8:1]/6-1[8:1],,,,
{16}34,81,34,81,43,87,34,87,34,76,34,76,
34,65,34,6h[16:13]/5h[16:13],
{8},67,78,81,12,23,34,,
{1}4b>4[4:7]*<4[4:7]/8b>8[4:7]*<8[4:7],,,,,

E

EXPERT


MASTER

タグ:

+ タグ編集
  • タグ:
最終更新:2017年01月02日 00:14