EASY
BASIC
ADVANCED
EXPERT
(79){2}1-6[8:1],6-3[8:1],1-4[8:1],4qq2[8:1]*pp6[8:1],{8}8,2/6,4,2/6,{2}8qq6[8:1]*pp2[8:1],1pp3[8:1]*qq7[8:1],{4}5-1[8:1],4>5[8:5],8h[4:3],,,{16}1,1/8,,3/6,{2}3p5[8:1]/6-1[8:1],6q4[8:1]/3-8[8:1],{8}1,3/7,5,3/7,{4}1-5[8:1],7-3[8:1],1-4[8:1]*-6[8:1],,5v4[8:1],3p6[8:1],{1}7>2[8:11],{4},,,1b/8b,
{16}4h[4:1],5,6,,6h[4:1],5,4,,3h[4:1],4,5,,7h[4:1],6,5,,2h[4:1],3,4,,8h[4:1],7,6,,3,3,5,5,4,4,3/7,,5h[4:1],4,3,,3h[4:1],4,5,,6h[4:1],5,4,,2h[4:1],3,4,,7h[4:1],6,5,,
1h[4:1],2,3,,6h[8:3],5,4,3,2h[8:1],,,,3h[4:1],4,5,,2h[4:1],3,4,,1h[4:1],2,3,,8h[4:1],7,6,,7h[4:1],6,5,,6h[4:1],5,4,,5,5,4,4,6,5,4/7,,6h[4:1],5,4,,7h[4:1],6,5,,
8h[4:1],7,6,,1h[4:1],2,3,,2h[4:1],3,4,,3h[4:1],4,5,,{8}4,6/7,1/2,4/5,7/8,1/2-5[8:1],4-7[8:1],,,4-7[8:1],6-1[8:1],,,6-1[8:1],8-3[8:1],,,2h[4:1],1,3,4/5,6/7-4[8:1],5-2[8:1],,,5-2[8:1],3-8[8:1],,,{16}7,7,8,8,1,1,2,2,3,3,4,4,5/6,,{8}2/3,7-4[8:1]/8,5-2[8:1],,,5-2[8:1],3-8[8:1],,,3-8[8:1],1-6[8:1],,,7h[4:1],8,6,5/4,3/2-5[8:1],4-7[8:1],,,4-7[8:1],6-1[8:1],,,{16}2,2,1,1,8,8,7,7,6,6,5,5,4/3,,
{8}1h[8:7]/7s3[2:1],,,,,,,3p7[8:1],5h[8:3],,,7p3[8:1],1h[8:3],,,3s7[2:1],{4}5h[1:1],,,,1pp3[8:1],5pp7[8:1],{8}1,2,3/6,,
{16}1b>4[8:1],8,7,6,5,6,7,8,1,2,3,4,5/6,5/6,,3/8,7,6,5,4,2/3,,4,5,7/6,,2/3,,6,5,4,3,{8}2V48[16:3],5-7[16:1],,,5-1[16:1]/4-2[16:1],,,,{16}8,7,6,5,2/4,,1/3,,1,2,3,4,5/7,,6/8,,8b<5[8:1],1,2,3,4,3,2,1,8,7,6,5,4/3,4/3,,6/1,2,3,4,5,7/6,,8,1,2/3,,7/6,,3,2,1,8,{8}7V51[16:3],4-2[16:1],,,4-8[16:1]/5-7[16:1],,,,{16}1,2,3,4,7/5,,2/4,,8,7,6,5,2<7[1:2]/4,,7/5,,E
MASTER
(79)
{16}
7,,,,2q7[8:1]/6h[16:1],5h[16:1],4h[16:1],3h[16:1],,,,,1s5[8:1],37,,37,
,,,,3h[16:1]/7p2[8:1],4h[16:1],5h[16:1],6h[16:1],,,,,8h[16:1],6h[16:1],4h[16:1],2h[16:1],
7q3[8:1],,1,,2q6[8:1],,8,,7>6[8:1],,1,,,,,,
2p6[8:1],,8,,7p3[8:1],,1,,2^7[16:1],,8,,,,{32}4,4,5,5,
{16}
1p6[4:1],,8,,6>1[4:1],7,7,,1p6[4:1],,8,,6,7b,,7b,
8q3[4:1],,1,,3<8[4:1],,2,,8q3[4:1],,1,,3,,,,
1-7[8:1],,7-2[8:1],,2-6[8:1],,6-3[8:1],,3-5[8:1],,5-1[8:1],,,,,,
8-6[16:1],,1-5[16:1],,2-4[16:1],,,,7-5[16:1],,8-4[16:1],,1-3[16:1],,,,
8q1[4:6],8,8,8,7,7,7,7,6,6,6,6,5,5,5,5,
4,4,4,4,3,3,3,3,2,2,2,2,,,,,
2-5[16:1],2,1,8,7-4[16:1],7,8,1,2^5[16:1],2,1,8,7^4[16:1],7,8,1,
2q6[16:1],2,1,8,7p3[16:1],7,8,1,2,2,1,8,8-2[16:1],2-6[16:1],6V84[8:1],,
,,,,6^3[16:1],6,7,8,2-5[16:1],2,1,8,7-4[16:1],7,8,1,
3^6[16:1],3,2,1,7,7,8,1,{32}2,,7,,4,6,1,7,3,5,2,8,1,,,,
{16}
6-2[16:1],6,5,4,3-7[16:1],3,4,5,6^1[16:1],6,5,4,3^8[16:1],3,4,5,
6p1[16:1],6,5,4,3q8[16:1],3,4,5,6,6,5,4,1^7[16:1],7-3[16:1],3^1[16:1],1-5[16:1],
,,,,2^7[16:1],2,3,4,6-1[16:1],6,5,4,3-8[16:1],3,4,5,
7^2[16:1],7,6,5,3,3,4,5,7/8h[16:1],7,3/4h[16:1],3,1h[16:1]/2,2,5h[16:1]/6,6,
2,,,,8,8^2[16:1]*^6[16:1],2v4[16:1]/6v4[16:1],,,,,,1,1^3[16:1]*^7[16:1],3v5[16:1]/7v5[16:1],,
,,,,8v2[8:1]*v6[8:1],8,2^4[16:1]/6^4[16:1],,,,,,1v3[8:1]*v7[8:1],1,3^5[16:1]/7^5[16:1],,
,,,,7^5[16:1],5-1[16:1],1^3[16:1],3-7[16:1],,,,,2^4[16:1],4-8[16:1],8^6[16:1],6-2[16:1],
,,,,8,3,6,1,{32}5,2,7,4,8,3,6,1,5,2,7,4,8,3,6,1,
{16}
5h[4:1],,,,2h[4:1],,1-5[16:1],,7h[8:1],,,,6h[4:1],,8-4[16:1],,
3h[8:1],,,,1h[4:1],,3^6[16:1],,8h[4:1],,,,4h[8:1],,5h[8:1],,
2h[4:1],,8-3[16:1],,7h[4:1],,8-5[16:1],,1h[4:1],,8-3[16:1],,6h[4:1],,8-5[16:1],,
2h[4:1],,8q4[16:1],,7h[4:1],,8p4[16:1],,1h[4:1],,8,,{32}6,6,3,3,8,,,,
{16}
1-3[32:1],1-4[32:1],1-5[32:1],1-6[32:1],,,,,8-6[32:1],8-5[32:1],8-4[32:1],8-3[32:1],,,,,
2-7[32:1],2-6[32:1],2-5[32:1],2-4[32:1],,,,,7-2[32:1],7-3[32:1],7-4[32:1],7-5[32:1],,,,,
3^6[32:1],3q7[32:1],3v8[32:1],3-1[32:1],,,,,6^3[32:1],6p2[32:1],6v1[32:1],6-8[32:1],,,,,
4^7[32:1],4q8[32:1],4-1[32:1],4^2[32:1],,,,,5>5[8:1],5,5,5,,,,,
{32}
8,7,6,5,8-4[32:1],1,2,3,8,7,8,1,,,,,1,2,3,4,1-5[32:1],8,7,6,1,2,1,8,,,,,
2,3,4,5,7s3[16:1],6,5,4,2,1,8,7,,,,,1,8,7,6,8,1,2,3,6,6,5,5,4,4,3,3,
7,4,7,4,6,3,6,3,5w1[8:1],2,5,2,6,3,6,3,{4}5pp1[8:1]*qq1[8:1],,
{32}
1p4[8:1],5p8[8:1],2,6,3,7,4,8,{4},{32}8q5[8:1],4q1[8:1],7,3,6,2,5,1,{4},
{16}
4-7[16:1],,8,,5-2[16:1],1,1,,3-8[16:1],,7,,6-1[16:1],2b,,2b,
8-3[16:1],,4,,1-6[16:1],,5,,7-4[16:1],,3,,2,2,{48}6,5,6,5,6,5,
{16}
6-1[16:1],1-6[16:1],2-5[16:1],5-2[16:1],,,,,8-3[16:1],3-8[16:1],4-7[16:1],7-4[16:1],,,,,
1-5[16:1],5-1[16:1],3-7[16:1],7-3[16:1],,,,,8-4[16:1],4-8[16:1],6-2[16:1],2-6[16:1],,,,,
3v2[16:1],7v6[16:1],3v4[16:1],7v8[16:1],,,,,2v3[16:1],6v7[16:1],2v1[16:1],6v5[16:1],,,,,
4v1[16:1],8v5[16:1],4v3[16:1],8v7[16:1],,,,,1v4[16:1],5v8[16:1],1v2[16:1],5v6[16:1],,,,,
{2}
,,,
Re:MASTER
- 間違っていたらすみませんm(_ _)m -- 名無しさん (2017-04-29 06:40:52)
- EXPERT譜面を追加しました。修正等ありましたらよろしくお願いします。 -- Sugar (2026-04-15 15:06:11)
最終更新:2026年10月04日 21:02