アットウィキロゴ

孤独月(創作譜面:Rinsaku)

曲名 孤独月
制作者名 Rinsaku
音源
譜面動画 -
制作者コメント 初投稿です。粗い作りですが大目に見てやってくださいw(EXPERTのみ、ほかの難易度はダミーです)
&first=1.48で合わせています
BPM EASY BASIC ADVANCED EXPERT MASTER
122 2 4 5 9+ 11

EASY


BASIC


ADVANCED


EXPERT

&inote_4=(122){4}
,,,,
,,,,
8h[2:1],1,3,5,
3qq4[4:1],,,3b/6b,
7h[4:1],4,1h[4:1],6,
{8}
2h[4:1],,6,7,8-4[8:1],,,,
1h[4:3],,7,7,6,6,5,5,
2b/7b,8,1b/6b,2,3b/8b,,,,
{4}
2h[4:1],5,8h[4:1],3,
{8}
7h[4:1],,3,2,1-5[8:1],,,,
8h[4:3],,1,1,2,2,3,3,
4V27[2:1]*qq7[2:1],,,,,,,,
2,13,8,17,6,6,6,,
5,46,2,17,8,8,8,,
1,28,3,24,5,5,5,,
1-5[8:1],,8-4[8:1],,2-5[8:1],,7b,,
8,,7,,6h[4:1],,,3,
{24}
2,,,,6,,,,,34,,,8,,,,5,,,,,67,,,
{4}
8-4[8:1],,1-5[8:1],,
12,56,7-4[8:1]/8-3[8:1],,
{8}
1,,2,,3h[4:1],,,,
{24}
7,,,,3,,,,,56,,,1,,,,4,,,,,23,,,
{4}
4-8[8:1],,5-1[8:1],,
34,78,6-1[8:1]/5-2[8:1],,
1-5[8:1],7,8-4[8:1],2,
5-1[8:1],2,4-8[8:1],7,
2-7[8:1],5,1-4[8:1],7,
6-3[8:1],1,4-1[8:1],6,
{8}
8,7,56,,1,2,34,,
6h[4:1],3,2,,2h[4:1],7,6,,
18,18,18,,45,45,45,,
1,8,2,7,3,6,4,5,
4>5[2:1],,,,,,,,
7bv5[8:1]/2bv4[8:1],,,,5bv7[8:1]/4bv2[8:1],,,,
12,,7,3,5-2[8:1]/6-1[8:1],,,,
27,,4h[8:1],5,3h[8:1],6,2h[8:1],7,
1b/8b,7,2b/5b,3,4b/6b,,,,
6b-8[8:1]*-3[8:1],,,,3b-1[8:1]*-6[8:1],,,,
{24}
7,,,,3,,,,,56,,,1qq7[8:1]/2pp4[8:1],,,,,,,,,,,,
{8}
1h[4:3],,8,8,7,7,6,6,
5V72[2:1]*pp2[2:1],,,,,,,,
7bv5[8:1]/2bv4[8:1],,,,5bv7[8:1]/4bv2[8:1],,,,
{24}
2,,,,6,,,,,34,,,8pp2[8:1]/7qq5[8:1],,,,,,,,,,,,
{8}
1h[4:3],8,7,7,6,6,5,5,
2b/7b,8,1b/6b,2,3b/8b,,,,
7b-2[8:1]/3b-6[8:1],,,,8b-5[8:1]/4b-1[8:1],,,,
{24}
7,,,,3,,,,,56,,,1qq7[8:1]/2pp4[8:1],,,,,,,,,,,,
{8}
1h[8:1]/2h[8:1],,8h[8:1]/7h[8:1],,3h[8:1]/4h[8:1],,5h[8:1]/6h[8:1],,
4b>5[2:1]/5b<4[2:1],,,,,,,,
,,,,,,,,
E

MASTER


名前:
コメント:

タグ:

+ タグ編集
  • タグ:
最終更新:2017年05月21日 17:48