EASY
(110){4}
1,1,1,,2,2,2,,3,3,3,,4,4,4,,
5,5,5,,6,6,6,,7,7,7,,8,8,8,,
1,1,1,,1/8,1/8,1/8,,1h[2:1]/8h[2:1],,,,
2-7[2:1],,,,,,7,7,6-3[2:1],,,,,,,,
1,1,1,,8,8,8,,7,7,7,,6,6,6,,
5,5,5,,4,4,4,,3,3,3,,2,2,2,,
{1}1h[2:1],8h[2:1],1h[2:1],8h[2:1],
{4}
1-4[2:1],,,,,,5,5,
5-8[2:1],,,,,,8,8,
8-3[2:1],,,,,,4,4,
4-7[2:1],,,,,,1,1,
1-6[2:1],,,,,,5,5,
5-2[2:1],,,,,,1,8,1/8,,
{8}
8,8,8,,7,,7,,6,6,6,,5,,5,,4,4,4,,3,,3,,2,2,2,,1/8,,,,
1,1,1,,2,,2,,3,3,3,,4,,4,,5,5,5,,6,,6,,7,7,7,,1/8,,,,1b,,,,
{1}2h[4:3],1h[4:3],8h[4:3],7h[4:3],
{8}6,6,6,,4/5,,4/5,,3,3,3,,4/5,,4/5,,6,6,6,,4/5,4/5,4/5,,3,3,3,,4/5,4/5,4/5,,
{4}6b,,7-3[2:1],
{1},2b,,,,E
BASIC
(110){2}1,1/2,3,3/4,{4}
5,5,6,6,7,7,8,8b,8,,7/8,,6,,5/6,,4,4,3,3,2,2,1,1b,
1/2,,3/4,,5/6,,7/8,,1h[4:3]/8h[4:3],,,,
1,1,2,2,3,3,4,4,5,5,6,6,7,7,8,8b,
{8}1,,1,,1,1,1,,2,,2,,2,2,2,,3,,3,,3,3,3,,
{2}4h[4:1],5h[4:1],{4}4,4,4/5,4/5,6,6,7,7,8,8,1,1,7/8,7/8,1/2,1/2,
{1}8-4[4:3],,1-5[4:3],,{2}8,8,7,7,6,6,5,5,
{1}4h[2:1],3h[2:1],2h[2:1],1h[2:1],
{4}1b,1,2,1/2,3,3,4,3/4,5,5,6,5/6,7,7,8,7/8,1b/8b,,
{8}8,8,8,,7,7,7,,6,6,6,,5,5,5,,4,4,4,,3,3,3,,2,2,2,,1,1,1/8,,
2,1,2,,8h[4:1],,,,
7,8,7,,1h[4:1],,,,
2,2,2,,3,3,3,,4,4,4,,5,5,5,,4b/5b,,,,
{1}4h[2:1]/5h[2:1],3h[2:1]/6h[2:1],2h[2:1]/7h[2:1],1h[2:1]/8h[2:1],
{8}8,8,8,,7,7,7,,6,6,6,,5,5,5,,4,4,4,,3,3,3,,2,2,2,,1,1,1,,
{4}8b,,1,8,7,6,
{1}6-3[4:3],,,,,E
ADVANCED
(110){8}
2,2,3,3,4-8[8:1]/5,,,,
7,7,6,6,5-1[8:1]/4,,,,
2,2,3,3,4,4,5,5,6,6,7,7,1-5[8:1]/8-4[8:1],,,,
6h[4:1],,5h[16:3],{16},6-2[8:1],,6,{8},,,3,3,4,4,
3-8[8:1]/4-7[8:1],,,,6,6,5,5,4,4,3,3,2,2,1,1,
{2}8^3[8:1],1^6[8:1],7^2[8:1],{8}3,3,4,4,5,5,6,6,
{16}4/5,,,3/6,,,2/7,,,1/8,,,3b/6b,,,,
{8}4,4,5,4,3^6[8:1],,,,5,5,4,5,6^3[8:1],,,,
2h[4:1],,1,,7h[4:1],,8,,2,1,8,7s3[4:1],,,,,
2h[4:1],,1,,3,4,2/5,,
7h[4:1],,8,,6,5,4/7,,1/2,,7/8,,2,4,5,7,
{4}8h[4:1],7h[4:1],6h[4:1],5<4[2:1],,,,1b/8b,
{8}7,6,5,4,3-7[8:1],,,,6/8,,1/3,,7,5,4,2,
{4}1-3[8:1],7-5[8:1],8-4[8:1],,5h[4:1],4,3-8[8:1],4,6-1[8:1],5,
{8}2,1,8,7,6-1[8:1],,5,,3-8[8:1],,4,,5,6,7,8,1,2,3,4,
{2}
5-1[8:1]/6,8-4[8:1]/1,3-7[8:1]/4,
7-3[8:1]/8,4-8[8:1]/3,1-5[8:1]/8,
{8}6,7,8,1,2,3,4b/5b,,
4>5[2:1]/5,,,,,,,,
5<4[2:1]/4,,,,,,,,
3>6[8:3]/6,,,,,,5,4,
6<3[8:3]/3,,,,,,4,5,
3/6,3/6,2/5,2/5,1,8,2/7,,
3/6,3/6,4/7,4/7,8,1,2/7,,
3/6,2/5,1/4,,3/6,4/7,5/8,,
1/8,1/8,2/7,2/7,3/6,3/6,4/5,4^1[8:1]/5^8[8:1],,,,,
1/8,2,3,4,5-2[8:1]/6-1[8:1],,,,
1/8,7,6,5,3-8[8:1]/4-7[8:1],,,,
1/5,2/6,3/7,4/8,1/5,4/8,3/7,2/6,1,2/8,7,6/8,1w5[8:1],,,,
7/8,6,5,4,2-7[8:1]/3-6[8:1],,,,
2/1,3,4,5,7-2[8:1]/6-3[8:1],,,,
8h[4:1]/1,,6h[4:1],,4h[4:1],,2h[4:1],,8,1/7,2,1/3,8w4[8:1],,,,2b/6b,,,,
{16}
2h[16:3],,,3h[16:3],,,4h[16:3],,,5h[16:3],,,6,,,,
7h[16:3],,,6h[16:3],,,5h[16:3],,,4h[16:3],,,3,,,,
2h[16:3],,,1h[16:3],,,8h[16:3],,,7h[16:3],,,6,,,,
7h[16:3],,,8h[16:3],,,1h[16:3],,,2h[16:3],,,3,,,,
4h[16:3],,,2h[16:3],,,8h[16:3],,,6h[16:3],,,4,,,,
5h[16:3],,,7h[16:3],,,1h[16:3],,,3h[16:3],,,5,,,,
7h[16:3],,,6h[16:3],,,5,,
2h[16:3],,,3h[16:3],,,4,,
6h[16:3],,,7h[16:3],,,8,,
3h[16:3],,,2h[16:3],,,1,,
{8}4h[8:3]/5h[8:3],,,,3,4,5,6,7,8,1,2/7,,,
{1}4b^1[4:3]/5b^8[4:3],,,,E
EXPERT
(110)
{8}
2,4,7,5,4V61[8:1]/6V41[8:1],,,,
7,5,2,4,3V58[8:1]/5V38[8:1],,,,
2^7[4:3],2,3,3,4,4,5,5,
6,6,7,7,{16}1,1,,3/6^3[16:1],,,1,,
1h[16:7],,,,,,,2,,67,,3h[8:1]/4h[8:1],,,34,,
8h[8:3],,,,,,7,,23,23,,56,,1,1,1,
{8}2h[8:1],,3h[8:1],,4h[8:1],,5h[8:1],,
{16}6,{8}6,7,8,1,2h[8:1],{16}4h[2:1],,,,,{2}6h[16:11],3h[2:1],
{4}5h[4:1],4h[4:1],3h[4:1],6h[4:1],
{16}5,47,,34,25,,78,16,,12,38,,2b/7b,,,,
3,,3,4,,4,3,,3,,,,,1,1,,
6,,6,5,,5,6,,6,,,,,8,8,8,
{8}7h[4:1],8,2h[4:1],1,6h[4:1],8,3h[4:1],1,
5h[4:1],8,4h[4:1],1,{16}7h[16:5],,,2h[8:1],,,
{8}2-5[16:1]/7b,8,7^4[16:1],3,1-5[16:1],6,8p4[16:1],2,
3-8[16:1],5,6^1[16:1],3,2v5[16:1],8,7v4[16:1],3,
2^5[16:1],6,8-4[16:1],3,1q5[16:1],7,6-1[16:1],4,
3^8[16:1],7,5-1[16:1],4,2,8,6,4>5[2:1]/5p4[2:1],
45,,,,,,,{16}1b/8b,18,18,,
{8}47,36,2/5^8[8:1],1^4[8:1],,,,18,
{16}5h[16:3],,,4,{8}5,36,2h[4:1],3,7h[4:1],6,
{4}2^5[4:1],5^8[4:1],8^3[4:1],3^6[4:1],8h[16:7],
{16},,,6h[16:5],,,,,4q5[4:1],,,,,,,,
,,5,4,5p4[4:1],,,,4>5[4:1],,,,,,,,
1,,,34,,56,,,18,,,,
7,6,4,5,2,3,5,4,8,7,4,5,1,2,5,4,
{4}7-3[8:1],,1,2,3-6[8:1],,7,6,8-4[8:1],,2,1>8[4:1],,,
{8}27,4>8[8:1]/5,1/8^5[16:1],,
{16}
4h[16:3],,,3h[16:3],,,6h[16:3],,,5h[16:3],,,7h[4:1],,8,,
5h[16:3],,,6h[16:3],,,3h[16:3],,,4h[16:3],,,2h[4:1],,1,,
4h[16:3],,,3h[16:3],,,5h[16:3],,,6h[16:3],,,7h[4:1],,8,,
5h[16:3],,,6h[16:3],,,4h[16:3],,,3h[16:3],,,2h[8:3],,1,,
3h[8:1],,,1h[8:1]/4h[8:1],,,5h[8:1]/8h[8:1],,,6h[8:1]/7h[8:1],,,67,,45,,
6h[8:1]/7h[8:1],,,5h[8:1]/8h[8:1],,,1h[8:1]/4h[8:1],,,2h[8:1]/3h[8:1],,,23,,45,,
2h[8:1]/3h[8:1],,,1h[8:1]/2h[8:1],,,18,,6h[8:1]/7h[8:1],,,7h[8:1]/8h[8:1],,,18,,
2,4,3,7,5,6,1,4,3,8,5,6,2,5,4,7,{8}5-1[8:1],,,8b,
{16}3-7[8:1],,7,,5,5,,68,,45,,1h[16:3]/3,,,8,,18,,
24,,18,,57,,1^6[16:1]/8^3[16:1],18,,,,,,,
{8}3-8[16:1],7-4[16:1],3,7,1-6[16:1],5-2[16:1],1,5,
3h[4:1],1,6h[4:1],8,{16}4^2[16:1]*^7[16:1],4,,,,,,,
6-2[8:1],,2,,4,4,,13,,45,,6/8h[16:3],,,1,,18,,
57,,18,,24,,1^6[16:1]/8^3[16:1],18,,,,,,,
{8}1-5[8:5],,8,2,7,3,6,4,{16}6,6,8,,3,3,1,,6,6^3[16:1],3^8[16:1],,,,,,{2}4b,
{16}
7^4[16:1],,,8,,,1^6[16:1],,,2,,,3,,45,,
6^1[16:1],,,5,,,4^7[16:1],,,3,,,2,,18,,
2^5[16:1],,,1,,,8^3[16:1],,,7,,,6,,45,,
3^8[16:1],,,4,,,5^2[16:1],,,6,,,7,,18,,
4,5,,5,7,,7,5,,5,4,,4,,12,,
5,4,,4,2,,2,4,,4,5,,5,,78,,
1-4[16:1],1,1-6[16:1],,,,,,
5-7[16:1],5,5-1[16:1],,,,,,
8-5[16:1],8,8-3[16:1],,,,,,
4-2[16:1],4,4-8[16:1],,,,,,
{4}1b,,3V16[4:3]/7V52[4:3],,,,,4b/8b,,,,,E
MASTER
(110)
{8}
78,6,12,3,{16}7-3[8:1]/8,78,,6/7h[16:3],{8},,
12,3,78,6,{16}1/2-6[8:1],12,,2h[16:3]/3,{8},,
{16}7,6,2,3,8,5,1,4,2>6[8:1]/6,,,,{32}26,7,8,1,{8}2,
{16}
7,6,8,5,1,4,2,3,1-5[8:1]/4-8[8:1],58,,14,,,,,
7,7,8,8-6[16:1],1,1-5[16:1],2-4[8:1],8b,,1b,,2b,,,37,,
5,3,5,4,5-7[16:1],3-1[16:1],5,4-8[16:1],5b,3b,,4b,,1,1,1,
2/8-5[16:1],8h[8:1],,,1-4[16:1],1h[8:1],,,8^5[16:1],8h[8:1],,,1^4[16:1],1h[8:1],,,
7,7,3,3,5,5,1,1,2-5[16:1]/8-5[16:1],5-2[16:1]*-8[16:1],,1,,,,,
1-4[16:1]/7-4[16:1],4-1[16:1]*-7[16:1],,8,,,,,3^5[16:1]/7^5[16:1],5>1[8:1]*<1[8:1],,1,,,,,
2^4[16:1]/6^4[16:1],4>8[8:1]*<8[8:1],,8,,,,,3,3,7,7,18,
1^4[16:1]/8^5[16:1],,,1v3[16:1]/8v6[16:1],,,1^4[16:1]/8^5[16:1],,,
1v3[16:1]/8v6[16:1],,,1^4[16:1]/8^5[16:1],,,1b/8b,,,,
2,1,3,4,1,8,4,5,8,7,5,6h[16:5],,,7,,
8,7,5,6,1,8,4,5,2,1,3,4h[16:5],,5,5,5,
{8}5-1[16:1],46,1-5[16:1]/5,28,1/5-1[16:1],46,15,28,
{16}1,1,7,7,3,3,5,5,{32}1w5[8:1],8,7,6,5,4,3,2,{4}1b,
{16}78,,1-6[16:1],8,2,,12,,5,,8-3[16:1],1,7,,78,,
4,,1-6[16:1],8,2,,12,,5,,8-3[16:1],1,7,,78,,
4,,1-5[16:1],8,2,,13,,4,,8-4[16:1],1,7,,68,,
2,1,3,4,1,8,4,5,8,7,5,6,1s5[4:1]/5,,37,,
{2}1/5s1[4:1],{32}5,6,7,8,1,2,3,4,{4}1b/5,
{16}78,,1-6[16:1],7,8,,12,,4,,8-3[16:1],2,1,,78,,
5,,1-6[16:1],7,8,,12,,4,,8-3[16:1],2,1,,78,,
5,,1-5[16:1],7,8,,13,,4,,8-4[16:1],2,1,,68,,
5,,2,1,3,1,4,1<5[16:3]/5,,,,,{24}1,2,3,{8}4,
{12}1/2h[6:1],1,1,7h[6:1]/8,8,8,{8}2>8[16:3]/7<1[16:3],18,,,
3b/6b,{16}2,1,3,1,4,1/5<1[16:3],,,,,5,,,,
3,1,2,8,1,7,8,6,2,4,3,5,4,6,5,,
{8}7-2[2:1]/8,7/8-5[16:1],1,8,,,3,,
{16}8h[8:1],2,1h[8:1],7,8h[8:1],3,1h[8:1],6,8h[8:1],4,1,5,18,27,36,,
{8}1/2-7[2:1],1-4[16:1]/2,8,1,,,6,,
{16}1,1,8,8-6[16:1],1,1-5[16:1],2-4[8:1],8b,,1b,,2b,,,2b/7b,,
{16}1h[16:3]/8,,,5h[16:3],,,8h[16:3],,,4h[16:3],,,7h[4:1],,6,,
3h[16:3],,,6h[16:3],,,2h[16:3],,,5h[16:3],,,1h[4:1],,2,,
5h[16:3],,,2h[16:3],,,6h[16:3],,,3h[16:3],,,7h[4:1],,8,,
2h[16:3],,,6h[16:3],,,3h[16:3],,,5h[16:3],,,4,,45,,
2^7[16:1]/6,,,2^5[16:1]/6,,,2^7[16:1]/6,,,2^5[16:1]/6,,,26,,,,
3/7^2[16:1],,,3/7^4[16:1],,,3/7^2[16:1],,,3/7^4[16:1],,,37,,,,
{16}2^5[8:1]/7,8,1,2h[16:3],,,,,2/7^4[8:1],1,8,7h[16:3],,,,,
24,3,3,57,6,6,13,2,2,68,7,7,1qq5[4:1]/5qq1[4:1],26,37,48,
15,,,,,,3b/7b,,
{32}36,,7,8,7,,2^4[16:1],1,{16}2,6^8[16:1],6,2b-6[16:1],,6b,,2b,,,27,,
{32}45,,3,4,3,,6,5,{16}6^8[16:1],2^4[16:1],2,,6b-2[16:1],2b,,6b,,,8,,
{8}1/2b^5[16:1],1/8b^5[16:1],1/2b-6[16:1],1/8b-4[16:1],1/2b^5[16:1],1/8b^5[16:1],1/2b,1/8b,
{16}3h[8:1],4,6h[8:1],5,2h[8:1],3,7h[8:1],6,2,1,7-4[16:1],8,1,,7b/8b,,
{32}36,,2,1,2,,7^5[16:1],8,{16}7,3^1[16:1],3,7b-3[16:1],,3b,,7b,,,27,,
{32}45,,6,5,6,,3,4,{16}3^1[16:1],7^5[16:1],7,,3b-7[16:1],7b,,3b,,,1,,
{8}7b^4[16:1]/8,1b^4[16:1]/8,7b-3[16:1]/8,1b-5[16:1]/8,7b^4[16:1]/8,1b^4[16:1]/8,7b/8,1b/8,
{16}7h[16:1],3h[16:1],6h[16:1],2h[16:1],5h[16:1],1h[16:1],4h[16:1],8h[16:1],
3h[16:1],7h[16:1],2h[16:1],6,1<5[8:1],,1/5>5[4:1],,{2},
{16}
1^4[16:1]/2,,8,1-6[16:1]/8,,2,1^4[16:1]/2,,8,1-6[16:1]/8,,2,12,,5b,,
7/8^5[16:1],,1,1/8-3[16:1],,7,7/8^5[16:1],,1,1/8-3[16:1],,7,78,,4b,,
1^4[16:1]/2,,8,1^6[16:1]/8,,2,1^4[16:1]/2,,8,1^6[16:1]/8,,2,12,,5b,,
7/8^5[16:1],,1,1/8^3[16:1],,7,7/8^5[16:1],,1,1/8^3[16:1],,7,78,,4b,,
2/7-4[16:1],8,8,2-5[16:1]/7,1,1,2/7-4[16:1],8,8,2-5[16:1]/7,1,1,27,,6b,,
2-5[16:1]/7,1,1,2/7-4[16:1],8,8,2-5[16:1]/7,1,1,2/7-4[16:1],8,8,27,,3b,,
1/7-3[16:1],8,8,1-5[16:1]/7,8,8,1/7-3[16:1],8,8,1-5[16:1]/7,8,8,17,,4b,,
26,26,37,37,48,48,15,15,
{48}48,7,6,5,4,3,2,1,8,7,6,5,48,1,2,3,4,5,6,7,8,1,2,3,
{8}4b/8b-4[8:7],,,,1,7,2,6,
3,5,3-7[8:1]*>4[8:11],3,,,3h[8:9],,
{1},E
Re:MASTER
(110){16}
8-5[16:1]/1,,6,,1-4[16:1]/8,,3,,1/8,8,,4/5,,,4/6,,
1-4[16:1]/8,,3,,8-5[16:1]/1,,6,,1/8,1,,4,,,3/5,,
{8}6-3[16:1],5,2-7[16:1]/6,1,
6-3[16:1]/2,5,2-7[16:1]/6,1,
6-3[16:1]/2,5,2-7[16:1]/6,1,
{16}2/6,6,,4/7,,,4/5,,
8,6,4,2-4[16:1],4,6-8[16:1],5,2v5[8:1],,6,,2,,,8,,
1,3,5,7,5-1[16:1],3-7[16:1],4,,5,3,,8,,7,7,7,
{32}7,,7,6,5,4,,,6,,6,5,4,3,,,5,,5,4,3,2,,,4,,4,3,2,1,,,
{8}1-3[16:1]/8,4,8^5[8:1]/1,5p2[4:1],8,,,,
{16}
4^1[8:1],5,,5,,,,,
5^8[8:1],4,,4,,,,,
4,3,,5,6,,4,2,,5,7,,4/5,,1/8,,
{64}
8,7,6h[64:10],,,,,,,,,,1,2,3h[64:10],,,,,,,,,,
7,6,5h[64:10],,,,,,,,,,2,3,4h[64:10],,,,,,,,,,
{16}8b,,,,
2/5,2/5,3/6,3/6,4>5[8:3]/7,4/7,5/8,5/8,,,,,,,,,
4/7,4/7,3/6,3/6,5<4[8:3]/2,2/5,1/4,1/4,,,,,,8,8,8,
1-4[8:1],1,1,1,8-5[8:1]/1,8,8,8,
1-4[8:1]/8,1,1,1,5-8[8:1]/1,5,5,5,
4-1[8:1]/5,4,4,4,5-8[8:1]/4,5,5,5,
1/5,1,1,1,1-3[8:1]/8,,1/8,,
1-5[8:1],4,4,4,1-3[8:1],7,7,7,1-5[8:1],4,4,4,1-3[8:1],6,6,6,
1-5[8:1],4,4,4,1-3[8:1],8,8,8,1-5[8:1],5,6,7,8-6[8:1]/1,,8,,
8-4[8:1],5,5,5,8-6[8:1],2,2,2,8-4[8:1],5,5,5,8-6[8:1],3,3,3,
8-4[8:1],5,5,5,8-6[8:1],1,1,1,8-4[8:1],5,5,5,8qq3[2:1],2,2,2,
{4}8,,,2b-4[8:1]/7b,{16}
2-6[8:1],5,5,5,2-4[8:1],7,8,7,2-6[8:1],5,5,5,2-4[8:1],8,1,8,
2-6[8:1],5,5,5,2-4[8:1],7,8,7,2-6[8:1],6,7,8,7-5[8:1]/2,,7,,
7-3[8:1],4,4,4,7-5[8:1],2,1,2,7-3[8:1],4,4,4,7-5[8:1],1,8,1,
2h[16:7]/7,,,,,,,4,,,,,{24}3,4,5,3,4,5,
{12}6,4/5,3/4,4-8[8:1]/5,5/6,4/5,{2}4-2[8:1]*-6[8:1]/3,{16}
8h[8:1],,5h[8:1],,8,8,5,5-1[16:1],,6,,8,8,,,,7,6,5,4,6,5,4,3,5,4,3,2,1,2,3,,
3,4,3,2^8[16:1],3,4,3,2,,,,,5,,,,6,5,6,7^1[16:1],6,5,6,7,,,,,8,8,8,,
3,4,3,2^8[16:1],3,4,3,2,,,,,5w1[8:1],,,,,,,,4/5,4/5,,5/7,,1/8,,2/4,,,8b,,
{64}
2,3,4h[32:3],,,,,,,,,,2,3,4h[32:3],,,,,,,,,,2,3,4h[32:3],,,,,,,,,,2,3,4h[32:3],,,,,,,,,,2,3,4,,,,,,,,,,,,,,
7,6,5h[32:3],,,,,,,,,,7,6,5h[32:3],,,,,,,,,,7,6,5h[32:3],,,,,,,,,,7,6,5h[32:3],,,,,,,,,,7,6,5,,,,,,,,,,,,,,
1/8,2,3h[32:3],,,,,,,,,,1/8,7,6h[32:3],,,,,,,,,,1/8,2,3h[32:3],,,,,,,,,,1/8,7,6h[32:3],,,,,,,,,,1/8,2,3,,,,,,,,,,,,,,
1/8,7,6h[32:3],,,,,,,,,,1/8,2,3h[32:3],,,,,,,,,,1/8,7,6h[32:3],,,,,,,,,,1/8,2,3h[32:3],,,,,,,,,,1/8,7,6,,,,,,,,,,,,,,
1/2,3,4h[32:3],,,,,,,,,,1/2,8,7h[32:3],,,,,,,,,,1/2,3,4h[32:3],,,,,,,,,,1/2,8,7h[32:3],,,,,,,,,,1/2,3,4,,,,,,4/5,,,,,,,,
7/8,6,5h[32:3],,,,,,,,,,7/8,1,2h[32:3],,,,,,,,,,7/8,6,5h[32:3],,,,,,,,,,7/8,1,2h[32:3],,,,,,,,,,7/8,6,5,,,,,,4/5,,,,,,,,
2/3,4,5h[32:3],,,,,,,,,,2/3,1,8h[32:3],,,,,,,,,,4/5,,,,,,,,
6/7,5,4h[32:3],,,,,,,,,,6/7,8,1h[32:3],,,,,,,,,,4/5,,,,,,,,
2/4,5,6,,,,,,,,,,2/4,5,6,,,,,,,,,,5/7,4,3,,,,,,,,,,5/7,4,3,,,,,,,,,,
3pp6[8:3]/4,5,6,,,,,,{2}1/2,{16}8b,,
1,2,3,4-8[16:1],3,2-6[16:1],3,4<1[8:1],,2,,4,,,3/4,,
2,1,8,7,8-4[16:1],1-6[16:1],7,,8,1,,7b,{8}7v4[16:1],3-1[16:1],
7b-5[16:1],3bv8[16:1],7bv4[16:1],3b-1[16:1],7b-5[16:1],3bv8[16:1],7b,3b,
{16}5,5,3,3,7,7,1,1-4[16:1]*-6[16:1],5,5,,1,,,1/8,,
8,7,6,5-1[16:1],6,7-3[16:1],6,5>8[8:1],,7,,5,,,5/6,,
7,8,1,2,1v4[16:1],8v5[16:1],2,,1,8,,1b,,,1/8,,
3^1[16:1],3,4,5,6^4[16:1],6,7,8,1^7[16:1],1,2,3,4,4,5,5,
4,4,6,6,2,2,8,8-3[16:1]*-5[16:1],4,4,,8,,,1/8,,{2}4,
{64}
2,3,4h[32:3]/5h[32:3],,,,,,,,,,7,6,4h[32:3]/5h[32:3],,,,,,,,,,
2,3,4h[32:3]/5h[32:3],,,,,,,,,,7,6,4h[32:3]/5h[32:3],,,,,,,,,,4/5,,,,,,,,6/7,,,,,,,,
1,2,3h[32:3]/4h[32:3],,,,,,,,,,2,3,4h[32:3]/5h[32:3],,,,,,,,,,
3,4,5h[32:3]/6h[32:3],,,,,,,,,,4,5,6h[32:3]/7h[32:3],,,,,,,,,,6/7,,,,,,,,4/5,,,,,,,,
4/5,6,7h[32:3],,,,,,,,,,6,5,2h[32:3]/4h[32:3],,,,,,,,,,5,6,7h[32:3],,,,,,,,,,6,5,1h[32:3]/4h[32:3],,,,,,,,,,1/4,,,,,,,,8b,,,,,,,,
4/5,3,2h[32:3],,,,,,,,,,3,4,5h[32:3]/7h[32:3],,,,,,,,,,4,3,2h[32:3],,,,,,,,,,3,4,5h[32:3]/8h[32:3],,,,,,,,,,
{16}5/8,8,8,8,
1-3[16:1]/7-5[16:1],8,8w4[16:1],,1/7,,8,,1w5[16:1],1,2/8,,1,,,,
2-4[16:1]/8-6[16:1],1,1w5[16:1],,2/8,,1,,8w4[16:1],8,1/7,,8,,,,
1-6[16:1]/7-2[16:1],8,8w4[16:1],,1/7,,8,,1w5[16:1],2/8,3/7,,1,,,,
2-7[16:1]/8-3[16:1],1,1w5[16:1],,2/8,,1,,1-5[8:1],3/7,5w1[8:1],,{4}1,,,
{16}6h[1024:1],,4h[1024:1],,5h[1024:1],4h[1024:1],,3h[1024:1],,6h[1024:1],,5h[1024:1],
4^6[8:1],,4h[1024:1],,,,,,{64}6h[1024:1],5h[1024:1],4h[1024:1],
{1}3h[1024:1],,E
- Re:MASTER追加しました。修正箇所等ありましたら修正・加筆をおねがいします。 -- Sea (2018-06-23 12:02:53)
- 青緑黄追加しました。修正箇所等ありましたら修正・加筆をおねがいします。 -- Sea (2018-06-27 02:48:10)
- Re:MASTERははっぴーが作ったものですね。 -- 嵐雅 (2021-05-09 17:50:01)
- EXP─2段落でブレイク不足 {8}2-5[16:1]/7, → {8}2-5[16:1]/7b -- らぐにゃ (2026-01-17 21:41:57)
- MASTER譜面のSLIDEの速度、HOLDの終点の修正を行いました。 -- けもがみ (2026-02-25 21:39:20)
- Re:MASTER譜面のノーツの配置ミス、SLIDEの速度の修正を行いました。 -- けもがみ (2026-04-10 00:58:51)
最終更新:2026年10月04日 21:03