アットウィキロゴ

Maxi〈スタンダード〉

アーティスト Nizikawa

BPM EASY BASIC ADVANCED EXPERT MASTER Re:MASTER
180 3 6 9+ 12+ 14 -

EXPERT MASTER Re:MASTER
譜面制作者 LabiLabi 小鳥遊さん -

EASY


BASIC


ADVANCED


EXPERT


MASTER

(180)
{1}4V25[8:3]/6V85[8:3],3V15[8:3]*v5[8:3],4-8[8:3]/5-1[8:3],
{8}8-4[4:1],,,8,{16}5,6,7,8,1,2,3,4,
{16}56,,,5,{8}56,7,56,4,56,7,
{16}34,,,4,{8}34,2,34,5,34,2,
{16}4,5,4,5,4,5,4,5,4,5,4,5,{32}4,3,2,1,8,7,6,5,
{8}4b/8b,8b,8b,8b,{16}4b,5b,4b,,2b/7b,,,,18,,,,
{8}56,4,56,7,56,,56,4,56,7,{16}56,,4,4,56,,7,7,56,,,,
{8}56,4,56,7,56,,56,7,56,4,56,47,{16}1,8,1,,2b/7b,,,,
{8}34,5,34,2,34,,34,5,34,2,{16}34,,5,5,34,,2,2,34,,,,
{8}34,5,34,2,34,25,{16}1,8,1,8,1,8,1,8,1-5[8:1],8,1,,18,,,,36,,,,
{8}78,6,78,1,78,,78,6,78,1,78,56,78,12,34,,
12,3,12,8,12,,12,3,12,8,12,34,12,78,56,,
78,6,78,1,78,,78,6,78,1,78,56,78,12,
{8}3h[4:1]/4h[4:1],,,5h[4:1]/6h[4:1],,,1h[8:1]/8h[8:1],,
18,27,36,45,1-5[8:1]/8-4[8:1],36,1b/8b,,

36,{16}2-5[8:1],1h[16:3],2,,,,7-4[8:1],8h[16:3],7,,,,
1-5[8:1],8h[16:3],1,,,,8-4[8:1],1h[16:3],8,,,,{8}1,2,3,
45,{16}6-1[8:1],5h[16:3],6,,,,3-8[8:1],4h[16:3],3,,,,
7,,6,5,6,5,6,,3,4,3,4,{8}3,27,27,
18,{16}7-4[8:1],8h[16:3],7,,,,2-5[8:1],1h[16:3],2,,,,
8-4[8:1],1h[16:3],8,,,,1-5[8:1],8h[16:3],1,,,,{8}8,7,6,
45,45,36,36,27,27,18,18,{16}27,,,45,,,18,,1h[4:1]/8h[4:1],,,,,,,,

{1}1/8>8[1:1],8>8[1:1],8>8[1:1],{4}8-6[8:1],1-5[8:1],2-4[8:1],,
{8}
8-2[8:1],,7b,,2v4[8:1]/7b,7b,,7b,8-2[8:1],7b,7b,,2v4[8:1]/7b,,,,
7-1[8:1],,6b,,1v3[8:1]/6b,6b,,6b,7-1[8:1],6b,6b,,1v3[8:1]/6b,,7b,,
8-2[8:1],,7b,,2v4[8:1]/7b,7b,,7b,8-2[8:1],7b,7b,,2v4[8:1]/7b,,7b,,
6,7,8,1,2,3,4,5,{4}2-5[8:1]/6-1[8:1],26,3b/7b,,
{8}3h[8:1]/6h[8:1],,3h[8:1]/6h[8:1],,3h[8:1]/6,5,3/6h[8:1],4,
3h[8:1]/6h[8:1],,3/6h[8:1],4,3h[8:1]/6,5,3h[8:1]/6h[8:1],,
3h[8:1]/6h[8:1],,3h[8:1]/6h[8:1],,3h[8:1]/6,5,3/6h[8:1],4,
{16}36,,4,5,4,,36,,5,4,5,,1,8,1,8,
{8}2h[8:1]/7h[8:1],,2h[8:1]/7h[8:1],,2h[8:1]/7,8,2/7h[8:1],1,
2h[8:1]/7h[8:1],,2/7h[8:1],1,2h[8:1]/7,8,2h[8:1]/7h[8:1],,
2h[8:1]/7h[8:1],,2h[8:1]/7h[8:1],,2/7h[8:1],1,2h[8:1]/7,8,
{16}27,,3,4,2,,18,,6-2[8:1],5,7,,1b,,,,
{4}1-4[8:1]/8,12,1/8-5[8:1],78,1-5[8:1]/8,12,1/8-4[8:1],78,
1-6[8:1]/8,12,1/8-3[8:1],78,
{16}45,,3,4,3,,45,,6,5,6,,27,,18,,
1b/2b,,3,4,3,,25,,7b/8b,,6,5,6,,47,,
3b/4b,,2,1,2,,38,,5b/6b,,7,8,7,,16,,
4,5,4,5,3,6,3,6,2,7,2,7,1,8,1,8,
1b,1b,1b,1b,1b,1b,1b,1b,{8}1bw5[8:1],28,1b,,

{16}18,,7-4[16:1],8,7,,78,,2-5[16:1],1,2,,12,,
8-4[16:1],1,8,,18,,1-5[16:1],8,1,,18,,{8}8,7,6,
{16}45,,3-8[16:1],4,3,,34,,6-1[16:1],5,6,,56,,
2,,3,4,3,4,3,,6,5,6,5,6,,{8}27,18,2b/7b,
{16}2-5[16:1],1,2,,12,,7-4[16:1],8,7,,78,,
1-5[16:1],8,1,,18,,8-4[16:1],1,8,,18,,{8}1,2,3,
45,56,45,34,45,56,45,34,{16}45,,,36,,,{8}2V48[16:3]/7V51[16:3],2b/7b,,,,
{16}7-4[16:1],8,6,8,7,,2-5[16:1],1,3,1,2,,8,7,6,,
1-5[16:1],8,2,8,1,,8-4[16:1],1,7,1,8,,1,2,3,,
7-4[16:1],8,6,8,7,,2-5[16:1],1,3,1,2,,8,7,6,,
45,,18,27,{8}36,27,2-5[8:1]/7-4[8:1],,2b/7b,,
{16}3,4,3,4,25,,6,5,6,5,47,,1,8,1,8,
2,1,2,1,38,,7,8,7,8,16,,4,5,4,5,
2,4,3,7,5,6,1,3,2,8,6,7,{32}1,2,3,4,5,6,7,8,
{16}15,,,26,,,{8}37,4h[4:1]/8h[4:1],,,,

{8}1-5[8:1],,,8V24[8:1]*-6[8:1],,,,,
6-2[8:1],,,8-3[8:1]*-5[8:1],,,,,
2v8[8:1],,,6v4[8:1],,,,,
8-4[4:1],,,8,{16}5,6,7,8,1,2,3,4,
{16}56,,,5,{8}56,7,56,4,56,7,
{16}34,,,4,{8}34,2,34,5,34,2,
8h[2:3],,1b,,6b,6b,,2b,,5b,5b,,
2bv4[8:1]*-8[8:1],,,,

{1},,E

Re:MASTER


  • MASTER譜面のSLIDEの速度の修正を行いました。 -- けもがみ (2026-05-29 17:44:48)
名前:
コメント:

タグ:

+ タグ編集
  • タグ:
最終更新:2026年10月04日 09:38