EASY
BASIC
(180.0){1},
{2}2,2,
{1}2h[2:1],
{2}1,1,
{1}1h[2:1],
{2}8,8,
{1}8h[2:1],
{2}1,1,
{1}1-5[4:3],,
{8}8h[8:3],,,,,,,8,{1},
{8}1h[8:3],,,,,,,1,{1},
{8}8h[8:3],,,,,,,8,{1},
{2}1,1,
{2}8,8,
{1}1b/8b,
{2}1,1,
{1}1h[2:1],
{2}2,2,
{1}2h[2:1],
{2}3,3,
{1}3h[2:1],
{1}4h[2:1],
{2}4,4,
{1}5h[2:1],
{2}5,5,
{1}6h[2:1],
{2}6,6,
{1}7h[2:1],
{8},,,,,,,1,
{8},,,8,,,,1,
{8},,,8,,,,1h[8:9]/8h[8:9],{1},,
{2}8,8,
{4}8,8,8,,
{2}7,7,
{4}7,7,7,,
{2}6,6,
{4}6,6,6,,
{2}5,5,
{4}5,5,5,,
{2}4,4,
{4}4,4,4,,
{2}3,3,
{4}3,3,3,,
{2}2,2,
{4}2,2,2,,
{2}1,1,
{1}1-5[4:3],,
(120.0){1}1h[2:1],
{1}2h[2:1],
{1}3h[2:1],
{4}4/5,,,(180.0)6,
{4},,,7,
{4},,,8,
{4},,,1,
{4},1b/8b,,7,
{4},7,,6,
{4}6,6,,5,
{4},5,,4,
{4}4,4,,3,
{4},3,,2,
{4}2,2,,1,
{4},1,,8-4[4:3],{1},
{4},,,1h[8:3],
{8},,,,,1,,,
{4},,,8h[8:3],
{8},,,,,8,,,
{4},,,1h[8:3],
{8},,,,,1,,,
{4},,,1/8,
{4},1,,8,
{4},1,,8h[8:21],
{8},,,,,,,{2}1h[2:3],{1},,
E
ADVANCED
(180.0){1},
{4}2,2,1,1,
{4}8,7,5/6,,
{4}7,7,8,8,
{4}1,8,1/8,,
{4}3,3,2,2,
{4}3,4,5/6,,
{4}6,6,7,7,
{4}6h[8:3],,,4h[8:3],
{4},,2,1,
{8}8h[8:7],,,,,,,1,{1},
{8}2h[8:7],,,,,,,3,{1},
{8}6h[8:7],,,,,,,5,{1},
{2}1/8,7,
{2}5,3,
{1}2h[4:3]/7h[4:3],
{2}3,3,
{4}6,5,6,,
{2}7,7,
{4}2,3,2,,
{2}1,1,
{4}8,1,8,,
{4}1h[4:3],,,8b,
{4}1/8,1/8,1/8,,
{4}2h[4:3],,,3,
{4}3/4,3/4,3/4,,
{4}6h[4:3],,,7,
{4}7/8,7/8,7/8,,
{4}1,1,1/8,1-4[8:5]/8-5[8:5],
{8},,,,,,,1,
{8},,,8,,,,1,
{8},,,8,,,,1h[8:9],{1},,
{4}7,7,8,8,
{4}1,2,3/4,,
{4}2,2,1,1,
{4}8,1,1/8,,
{4}6,6,7,7,
{4}6,5,3/4,,
{4}3,3,6,6,
{4}4,5,2/7,,
{8}4,,4,,5,5,5,,
{4}2,3,4/5,,
{8}8,,8,,1,1,1,,
{4}6,7,1/8,,
{8}2,,2,,7,7,7,,
{4}1,8,2/7,,
{8}8,,8,,2,2,2,,
{8}3/4,,,2/5,,,5/6,,
{8},4/7,,,1,,2,,
(120.0){2}3h[2:1],4h[2:1],
{4}5,5,5/6,5/6,
{2}6h[2:1],7h[2:1],
{4}8b,,,(180.0)1/8,
{4},1/8,,2/7,
{4},2/7,,6h[2:1],
{4},5h[2:1],,4,
{8},,3b/6b,,,,5,5,
{8}5,,2,2,2,,3/4,,
{8}4/5,,5/6,,,,4,4,
{8}4,,7,7,7,,5/6,,
{8}4/5,,3/4,,,,3,4,
{8}3,,6,5,6,,1/2,,
{8}1/8,,7/8,,,,2,1,
{8}2,,7,8,7,,3/4,,
{8},2/5,,,5/6,,,4/7,
{4},1,8,8h[8:7],
{8},,,,,1-4[8:3],,,
{4},,,2h[8:7],
{8},,,,,3-6[8:3],,,
{4},,,6h[8:7],
{8},,,,,5-1[8:3],,,
{4},,,1b/8b,
{4},2h[2:1],,4h[2:1],
{4},6h[2:1],,8h[16:13],
{8},,,,,,,8,
{8},,,,,1,,,
{16},,,,,,,1b/8b,
E
EXPERT
(180.0){1},
{2}1h[4:1],1h[4:1],
{8}2,,3,,4,8b,8b,,
{2}8h[4:1],8h[4:1],
{8}8,,7,,6,1b,1b,,
{2}1h[4:1],8h[4:1],
{8}2,,7,,2,8b,1b,,
{4}2/7,3/6,4/5,,
{8}1/2,,,7/8,,,5/6,,
{8},3/4,,,3/6,,2/7,,
{1}1h[1:1]/8h[1:1],,
{8}2h[8:3],,1,1,,8^3[2:1],,,{1},
{8}6h[8:3],,5,5,,4^7[2:1],,,{1},
{2},1/5,
{2}2/6,3/7,
{1}4h[4:3]/8h[4:3],
{8}1,1,1,,8,8,8,,
{8}1,2,3,3,8,7,6,6,
{8}1,1,2,,8,8,7,,
{8}2,3,4,4,7,6,5,5,
{8}1,2,3,,8,7,6,,
{8}4,5,3,6,2,7,1,8,
{4}1,1,5,5,
{4}3/4,2/5,7b/8b,,
{4}5/8,6-3[4:1]/7-2[4:1],,,
{4}1/2,1/8,7/8,,
{4}1/4,2-7[4:1]/3-6[4:1],,,
{4}7/8,1/8,1/2,,
{4}2/7,1-5[4:1]/8-4[4:1],,,
{8}3/6,,1,8,1,8,,3-7[8:1],
{8},,,6-2[8:1],,,,4-1[8:1],
{8},,,5-8[8:1],,,,2h[8:7],
{4},7,8,1,
{1}8b,
{8}7,7,7,,2,2,2,7,
{8}6,5,6,5,6,1b,1b,,
{8}2,1,2,,7,8,7,,
{8}3/4,,4/5,,5/6,4b,4b,,
{8}2,2,2,,7,7,7,2,
{8}3,4,3,4,3,8b,8b,,
{8}3,5,3,,6,4,6,3,
{8}4/5,,1/3,,6/8,1b,1b,,
{8}3,3,2/4,,6,6,5/7,,
{8}5,4,5,6,5/7,8b,8b,,
{8}7,7,6/8,,2,2,1/3,,
{8}4,5,4,3,2/4,1b,1b,,
{8}2/4,3,4,,5/7,6,5,6,
{8}5,4,3,4,3,8b,8b,,
{8}2,3,4,,7,6,5,4,
{8}3h[8:3],,,2h[8:3],,,1h[8:3],,
{8},8h[8:3],,,7,,6,,
(120.0){8}6h[2:1],,,,7h[8:3],,,8,
{4}8h[4:3],1,2,3,
{4}4h[1:1],,7,6,
{4}5,,,(180.0)1,
{8},,1,,,2,2,,
{4}1,8,7,6,
{16},,,,6,,,,3,,,5,4,,,,
{8},,8,,,,3,4,
{8}3,,6,5,6,,3,2,
{8}1,1,2,8b,8b,,6,5,
{8}6,,3,4,3,,6,7,
{8}8,8,7,1b,1b,,2,1,
{8}3,,7,8,6,,2,7,
{8}2,7,2,8b,8b,,2,1,
{8}2,,7,8,7,,2h[8:3],,
{8},3,,,7h[8:3],,,6,
{4},3h[4:1],{2}2<4[8:7],{1},
{4},,,2/5,
{8}1/6,1/6,,7-4[16:3]/8-3[16:3],,,,,
{4},,,1/4,
{8}5/8,5/8,,6-3[4:1]/7-2[4:1],,,,,{1},
{4},3/6,,2/7,
{4},1/8,,2h[8:7]/7h[8:7],
{8},,,,,,,1h[4:3],
{8},,,,,8,,,
{16},,,,,,,4b/5b,
E
MASTER
(180){4},,,,
{8}8,7,6,,1,2,3,,7,6,5,4,3,1b/7b,2b/8b,,
1,2,3,,8,7,6,,2,3,4,5,6,2b/8b,1b/7b,,
8,7,6,,1,2,3,4,7,6,5,4,3,1b/7b,2b/8b,,
6,7,8,,5,5,3,3,
{8}1v3[8:1],,,8v6[8:1],,,2v4[8:1],,,7v5[8:1],,,{4}3v6[8:1],,
{4}8b,{8}7,{4}7,65,52,8z4[4:1],,,{8},
{4}1h[4:1],{8}2,{4}2,34,47,2z6[4:1],,,{8},
{4}34,{8}6,{4}6,38,16,38,{8}7,6,5,,{16}3,4,
{2}2h[4:2],4<6[8:1],5>3[8:1],4<7[8:1],{4}5>2[8:1],,,4b/6b,
{4}56,{16}2h[16:3],,,3,{8}2,1,8,7,{4}34,{16}7h[16:3],,,6,{8}7,8,1,2,
{4}78,{16}3h[16:3],,,2,{8}3,4,5,6,{4}12,{16}6h[16:3],,,7,{8}6,5,4,3,
{4}34,{16}1h[16:3],,,2,{8}1,2,3,4,{4}56,{16}8h[16:3],,,7,{8}8,7,6,5,
{8}1-6[8:1],1,{4}8-3[8:1],2-5[8:1],7-4[8:1],3-8[8:1],4-7[8:1],,{8},
{16}7,8,7,,1,,3,4,3,4,{4}3,45,3p6[8:1],7>2[8:1],,{8},
{16}2,1,2,,8,,6,5,6,5,6,,,4,{4}5,6q3[8:1],2<7[8:1],,{8},
{16}7,8,7,,16,,2,1,2,,{4}83,18,{8}6,5,4,3,2,
{4}1-7[8:1],1b,4-7[8:1],4b,2-7[8:1],2b,5-7[8:1],5b,3-7[8:1],{8}3b,
{4},2,2,2,{8}78,{16}7,8,{4}6,{16}4,5,4,5,4,5,4,5,
{8}3,2,1,,1,2,3,8,8,6,6,4>2[8:1],4<6[8:1],,,,
5,6,7,,8,7,6,5,{16}2,1,2,1,{8}2,5<7[8:1],5>3[8:1],,,,
1,2,3,,8,8,2,4,4,6,6,8-6[8:1],8-3[8:1],,,,
8,7,6,,1,1,7,5,5,3,3,1-3[8:1],1-6[8:1],,,,
1,2,13,,8,7,68,,2,1,8,7-4[8:1],7-1[8:1],,,,
8,7,68,,1,2,31,,{16}3,4,3,4,{8}3,2-5[8:1],2-8[8:1],,,,
2,3,42,,7,6,57,,8,7,6,5-7[8:1],4-2[8:1],,,,
7,6,57,,3,2,1,8,
8q7[8:1],,,1p2[8:1],,,7q6[8:1],,,2p3[8:1],,,{4}5q4[8:1],,
(120){4}2h[4:2],,3h[8:3],{8},4,{4}5h[4:1],6h[4:1],7h[4:1],8<2[8:4],,,1h[4:1],{8}3,5,{4}6,
(180){8}4,6,3,7,2,8,{4}1h[4:2],,7h[8:3],{8},8,{4}8,82,17,83,
1>3[8:1]/6<8[8:1],,3>1[8:1]/8<6[8:1],,{16}4,5,4,5,4,5,4,5,{4}4,2b/7b,
{8}6,6,57,,2,2,13,,8,7,6,5-7[8:1],5-1[8:1],,,,
3,3,42,,7,7,86,7,8,{16}2,1,{8}2,4-2[8:1],4-8[8:1],,,,
6,57,48,,2,31,84,1,7,7,8,1p3[8:1],7q5[8:1],,,,
3,24,15,,7,68,51,2,8q6[8:1],,,1p3[8:1],,,7q5[8:1],,,2p4[8:1],,,{4}6p5[8:1],,
{4}1b,{8}2,{4}2,56,47,1s5[4:1],,,{8},
{4}8,{8}7,{4}7,34,25,6z2[4:1],,,{8},
{4}1,{8}2,{4}2,56,47,1h[4:1],{8}2,3,{4}4,{16}7,8,{4}6b,,
{4}2<7[4:1],,
6q3[4:1],,
4p5[4:1],,
8p1[4:1],,,
{16},{4}2q7[4:1],
{16},{4}6>3[4:1],,,
{4}1>7[8:3],,,{128},{64},,,{4}8b,
{4},,,,,,,,
E
Re:MASTER
最終更新:2026年10月04日 08:02