EASY
BASIC
ADVANCED
EXPERT
(179)
{4}2h[1:2],,,,,{8},4h[2:1],{4},,
{4}4h[1:2],,,,,{8},5h[2:1],{4},,
{4}5h[1:2],,,,,{8},7h[2:1],{4},,
{4}7h[1:2],,,,,{8},5h[2:1],{4},,
{8}5h[1:2],,,6,,,6,,6,,,6h[2:1],{4},,
{8}6h[1:2],,,5,,,5,,5,,,5h[2:1],{4},,
{8}5h[1:2],,,4,,,4,,4,,,4h[2:1],{4},,
{8}4h[1:2],,,3,,,3,,3,,,3h[2:1],{4},,
{8}3h[8:3],,,4,3h[8:3],,4h[4:1],,3h[8:3],,,4h[2:1],{4}3h[8:3],,
{8}5h[8:3],,,4,5h[8:3],,4h[4:1],,5h[8:3],,,4h[2:1],{4}5h[8:3],,
{8}6h[8:3],,,5,6h[8:3],,5h[4:1],,6h[8:3],,,5h[2:1],{4}6h[8:3],,
{8}4h[8:3],,,5,4h[8:3],,5h[4:1],,4h[8:3],,,5h[2:1],{4}4h[8:3],,
{8}3,4,5,6,6,5,4,3,3,4,5,6,7,7,7,7,
3,6,6,6,4,5,5,5,3,4,3,4,2,2,2,2,
3,4,5,6,6,5,4,3,2,4h[4:1],,
7,5h[4:1],,7,5h[4:1],,7,5h[4:1],,7,5h[4:1],,7,5h[4:1],,7,5h[4:1],,7,5h[4:1],,
3,4,5,6,6,5,4,3,3,4,5,6,7,7,7,7,
3,6,6,6,4,5,5,5,3,4,3,4,2,2,2,2,
3,4,5,6,6,5,4,3,2,4h[4:1],,
7,5h[4:1],,7,5h[4:1],,7,5h[4:1],,7,5h[4:1],,7,5h[4:1],,7,5h[8:3],{4},4,
{16}3,,4,3,,4h[16:3],,,3,,4,3,,4h[16:3],,,3,,4,3,,4h[16:3],,,3,,4,3,,6,5,6,
3,,4,3,,4h[16:3],,,3,,4,3,,4h[16:3],,,3,,4,3,,4h[16:3],,,3,,4,3,,6,5,6,
2,,4,3,,6,5,,2,,4,3,,6,5,,2,,4,3,,6,5,,2,,4,3,,6,5,,
2,,4,3,,6,5,6,2,,4,3,,6,5,6,3,4,3,6,5,6,3,4,3,6,5,6,{4}2,
{16}1,,8,1,,1,,8,1,,8,1,,1,,8,1,,8,1,,1,,8,{8}1,1,1,1,
{16}1,,8,1,,1,,8,1,,8,1,,1,,8,1,,8,1,,1,,8,{8}1,1,2,1,
{16}1,,8,1,,1,,8,1,,8,1,,1,,8,1,,8,1,,1,,8,{8}1,1,1,1,
{16}1,,8,1,,1,,8,1,,8,1,,1,,8,1,,8,1,,1,,8,{8}1,1,
{4}2<7[1:8],7b,,,,,,,,,,,,,,,,,,,,,,,,,,,,,,,,
{8}2h[1:2],,,4,,,4,,4,,,4h[2:1],{4},,
{8}4h[1:2],,,5,,,5,,5,,,5h[2:1],{4},,
{8}5h[1:2],,,7,,,7,,7,,,7h[2:1],{4},,
{8}7h[8:11],,,2,,,2,,2h[8:3],,,,
{4}45,,
,,,,
E
MASTER
(179)
{8}4,4,4,4,5,5,5,5,4,4,4,{16}1,1,{12}8,2,7,3,6,4,
{8}5,5,5,5,4,4,4,4,5,5,5,{16}8,8,{12}1,7,2,6,3,5,
{8}4,4,4,4,5,5,5,5,4,4,4,{16}1,1,{12}8,4,7,3,6,2,
{8}5,5,5,5,4,4,4,4,5,5,5,{16}8,8,{12}1,5,2,6,3,7,
{8}4h[4:1],,6,5h[4:1],,2,4h[4:1],8,6h[4:1],,1>8[4:1],3h[8:3],{4},,
{8}5h[4:1],,3,4h[4:1],,7,5h[4:1],1,3h[4:1],,8<1[4:1],6h[8:3],{4},,
{8}3h[4:1],,1,7h[4:1],,8,2h[4:1],8,6h[4:1],,1<2[4:1],3h[8:3],{4},,
{8}6h[4:1],,8,2h[4:1],,1,7h[4:1],1,3h[4:1],,8>7[4:1],6h[8:3],{4},,
{8}1h[4:1],8,7,6h[4:1],1,2,3h[4:1],8,7h[4:1],8,1,2h[8:3],{32}7,8,1,,3,4,5,6,{4}7,
{8}8h[4:1],1,2,3h[4:1],8,7,6h[4:1],1,2h[4:1],1,8,7h[8:3],{32}2,1,8,,6,5,4,3,{4}2,
{8}3h[4:1]/8h[8:1],,7h[8:3],8h[8:1],,2h[8:3],1h[8:1],,6h[4:1],1h[4:1],,8h[8:3],
{32}2,1,,7,6,5,4,3,{4}2,
{8}6h[4:1]/1h[8:1],,2h[8:3],1h[8:1],,7h[8:3],8h[8:1],,3h[4:1],8h[4:1],,1h[8:3],
{32}7,8,,2,3,4,5,6,{4}7,
{8}2,5,47,{16}5,3,4,,25,,4,6,5,,74,,5,3,{8}4<7[16:1],4>2[16:1],4q8[16:1],4-1[16:1],,,
{16}7,,3,4,3,4,3,,6,5,6,5,6,,{32}2,3,4,5,{8}8,6,1,3,{16}8,8,8,8,{24}1,2,3,8,7,6,
{16}2,,5,,3,4,3,,47,,6,5,6,,52,,3,4,3,,{8}47,
{16}6-2[16:1],6,{4}6h[8:1],{16}3-7[16:1],3,{4}3h[8:1],
{16}6-2[16:1],6,{4}6h[8:1],{16}3-7[16:1],3,{4}3h[8:1],
{16}6-2[16:1],6,{4}6h[8:1],{16}3-7[16:1],3,{4}3h[8:1],
{16}6-2[16:1],6,{4}6h[8:1],
{8}7,4,52,{16}4,6,5,,74,,5,3,4,,25,,4,6,{8}5>2[16:1],5<7[16:1],5p1[16:1],5-8[16:1],,,
{16}2,,6,5,6,5,6,,3,4,3,4,3,,{32}7,6,5,4,{8}1,3,8,6,{16}1,1,1,1,{24}8,7,6,1,2,3,
{16}7,,4,,6,5,6,,52,,3,4,3,,47,,6,5,6,,{8}52,
{16}8-4[16:1],8,{4}8h[8:1],{16}1-5[16:1],1,{4}1h[8:1],
{16}7-3[16:1],7,{4}7h[8:1],{16}2-6[16:1],2,{4}2h[8:1],
{16}8-4[16:1],8,{4}8h[8:1],{16}1w5[16:1],1,{8}1h[8:1],,,
{8}37,5,{16}4,,4,6,,6,,,3,,3,5,,5,,,4,,4,6,,6,,,3,,3,5,4,,4,6,
3,,3,4,,4,,,6,,6,5,,5,,,3,,3,4,,4,,,6,,6,4,5,,5,3,
6,,6,4,,4,5,,3,,3,5,,5,4,,6,,6,4,,4,5,,3,,3,5,4,,4,6,
3,,3,6,,6,5,,6,,6,3,,3,4,,3,,5,45,,3,34,,6,65,,4,{4}5b/4b,
{16}3,5,3,5,,4,,4,6,4,6,4,,5,,5,3,5,3,5,,4,,4,6,4,5,3,6,4,5,3,
5,4,5,4,,6,,6,4,5,4,5,,3,,3,5,4,5,4,,6,,6,4,5,4,5,{48}3,2,1,8,,,{8},
{16}6,5,6,5,6,3,6,3,4,3,4,3,6,3,6,3,6,4,6,4,5,3,5,3,6,4,5,3,6,4,5,3,
6,5,6,4,5,3,4,3,6,5,6,4,5,3,4,3,6,5,6,4,5,3,4,3,6,4,5,3,
{32}6,7,8,1,2,3,4,5,
{32}6h[4:12]/3,2,1,8,7,,5,4,3,2,1,8,7,,5,4,
{24}3,2,1,8,7,,5,4,3,2,1,8,
{16}7,,5,4,3,2,1,8,
{12}7,,5,4,3,2,
{8}1,8,7,,
{6}5,4,3,
{4}2,,,,
{8}35,3,3,36,6,6,46,4,47,7,7-3[8:1],2z6[8:1]/7,{4},,
{8}64,6,6,63,3,3,53,5,52,2,2-6[8:1],7s3[8:1]/2,{4},,
{8}47,4,4,46,6,6,36,3,35,5,5-1[8:1],2s6[8:1]/5,{4},,
{8}52,5,5,53,3,3,63,6,64,4,4-8[8:1],7z3[8:1]/4,{4},,
{8}4h[4:1],6,3,5h[4:1],3,6,4h[4:1],6,5h[4:1],3,6<3[4:1],4h[8:3],{4},,
{8}5h[4:1],3,6,4h[4:1],6,3,5h[4:1],3,4h[4:1],6,3-6[16:1],5h[8:1],
{4}3b,
,,,,
E
Re:MASTER
- {32}3,2,1,8,{8},→{48}3,2,1,8,,,{8},、1,6h[4:1],→1,7h[4:1],、8,3h[4:1],→8,2h[4:1],の修正、スライドの速さを修正しました。 -- けもがみ (2026-01-10 17:43:18)
最終更新:2026年10月04日 09:35